<svg xmlns="http://www.w3.org/2000/svg">
<defs>
<font id="Scheherazade-Bold" horiz-adv-x="0" >
  <font-face 
    font-family="Scheherazade"
    font-weight="700"
    font-stretch="normal"
    units-per-em="2048"
    panose-1="1 0 6 0 2 0 0 2 0 3"
    ascent="1638"
    descent="-410"
    x-height="690"
    cap-height="1022"
    bbox="-424 -1174 2955 1870"
    underline-thickness="9"
    underline-position="-56"
    unicode-range="U+0020-U+FEFF"
  />
<missing-glyph horiz-adv-x="1135" 
d="M803 785q0 -3 -5.5 -13t-13 -21.5t-14.5 -20.5t-9 -9t-11.5 6t-20 13.5t-19 14.5t-8.5 10t6 13l13.5 21.5t14.5 20.5t9 9q3 0 12 -6.5l19.5 -14t18.5 -15t8 -8.5zM870 670q0 -3 -5.5 -13t-13 -21.5t-14.5 -20.5t-10 -9q-2 0 -10 6l-18 14l-26 20q-2 2 -6 2q-1 0 -5 -2
l-18 -26q-7 -10 -13 -17.5t-8 -7.5t-11.5 6t-20 14l-19 15t-8.5 9q0 3 6 13t14 21.5l14.5 20.5t8.5 9q3 0 11.5 -6t18.5 -14l24 -20q4 -3 6 -3t6 5l17 24l13 17t8 8t11.5 -6.5l20 -14t19 -15t8.5 -8.5zM968 448q0 -20 -5 -45t-15.5 -47t-26 -37.5t-37.5 -15.5q-19 0 -33 6.5
t-25 15t-18.5 17.5t-13.5 14q-8 -13 -20 -30t-27.5 -32t-34 -25.5t-40.5 -10.5h-2q0 -106 -30 -171t-77 -100.5t-105 -47.5t-114 -12q-38 0 -68.5 13t-51.5 35t-32.5 51.5t-11.5 61.5q0 31 10.5 63t23.5 58t25 42t15 16q9 0 9 -7q0 -4 -7 -16t-16 -29.5t-16 -40.5t-7 -50
q0 -32 16.5 -54t40 -35.5t50.5 -19t48 -5.5q28 0 57.5 3t57 8.5t51 13.5t38.5 19q35 23 47 55t12 80q0 31 -5.5 52.5t-11.5 36t-11.5 23.5t-5.5 14q0 3 4.5 14.5t10.5 23.5t11.5 21.5t7.5 9.5q16 -23 24 -51q24 0 49 10.5t46 28t35 40.5t17 49q2 13 10 13q1 -1 3 -4
q2 -2 2.5 -5t2.5 -7q3 -21 14.5 -34t25.5 -20.5t27.5 -10.5t22.5 -3q4 0 13.5 5t9.5 10q0 4 -4.5 9t-10 10t-10 8.5t-4.5 5.5t3 14t7.5 26l8.5 25.5t7 11.5q6 0 12 -7.5t11 -18.5t8 -22.5t3 -18.5zM85 996v-1224h965v1224h-965zM60 1021h1015v-1274h-1015v1274z" />
    <glyph glyph-name="uni0624" unicode="&#x648;&#x654;" horiz-adv-x="653" 
d="M602 175q0 -69 -14 -143t-39.5 -145.5t-61.5 -135.5t-79.5 -112t-94 -76.5t-104.5 -28.5q-31 0 -64 12t-65 30.5t-60 39.5t-49.5 40t-34 32.5t-12.5 15.5t3 7t7 10.5t8 9.5t6 4q3 0 15.5 -7t32.5 -15.5t45.5 -15.5t53.5 -7q76 0 150 33t132.5 85t94.5 116.5t36 126.5
q0 25 -0.5 47.5t-3.5 44.5q-12 -21 -28 -37t-33.5 -26.5t-33.5 -16t-28 -5.5q-20 0 -43.5 10.5t-43.5 30t-34 47.5t-14 62q0 26 7.5 61t20.5 72t30 73.5t36.5 65.5t40 46.5t39.5 17.5q30 0 62 -24.5t58.5 -71.5t44 -115.5t17.5 -157.5zM430 299q-9 14 -23.5 29.5t-32.5 15.5
q-12 0 -20 -11.5t-8 -31.5q0 -13 9 -22.5t23 -9.5q20 0 33.5 9.5t18.5 20.5zM597 807q0 -6 -4.5 -18.5t-11.5 -24.5t-14.5 -22t-13.5 -12t-25 -9l-43.5 -16.5l-50.5 -20t-46 -17.5q-49 -19 -84 -36t-43 -17q-5 0 -9 2.5t-4 10.5q0 5 3.5 15.5t8.5 21t10 19.5t7 12q3 3 10 8
t15 9.5t15.5 8l11.5 5.5q-8 2 -17.5 7.5t-17.5 14t-14 19.5t-6 25q0 17 9 38.5t22.5 42.5t28 39t26.5 30q19 19 37 30t33 16.5t28 7t23 1.5q11 0 23 -4.5t22 -13t16.5 -20t6.5 -25.5q0 -13 -4 -28.5t-10 -29t-12.5 -22.5t-10.5 -9t-14.5 6.5l-23.5 14.5t-27 14.5t-26 6.5
q-20 0 -34 -12t-14 -23q0 -3 11.5 -12.5t28.5 -19.5t36 -18t34 -9q12 3 28.5 8l32 9.5l27.5 8t15 3.5q11 0 11 -15z" />
    <glyph glyph-name="uni0626" unicode="&#x64a;&#x654;" horiz-adv-x="1220" 
d="M1082 477q-17 16 -33.5 25.5t-50.5 9.5q-24 0 -53.5 -8.5t-59.5 -22.5t-59 -32t-51 -38t-35.5 -39.5t-13.5 -36.5t16 -32t43 -27t62 -21t72 -15q61 -9 99.5 -22t58.5 -36q11 -13 14 -33.5t3 -49.5q0 -17 -8 -38t-21.5 -42t-31 -40t-35.5 -34q-47 -37 -113 -73.5t-144 -65
t-165 -46.5t-177 -18q-98 0 -164 24t-106.5 66t-58 98t-17.5 121q0 44 11 89.5t27.5 88t36 80t36.5 65t28.5 43.5t13.5 16t8.5 -4t13 -8.5t11 -9t4.5 -5.5q-1 -4 -15 -27t-30 -59t-29 -83t-13 -98q0 -65 25.5 -103.5t69.5 -58.5t103.5 -25.5t127.5 -5.5q45 0 99 5.5
t108.5 15t105.5 21t90.5 23.5t63 23t23.5 19q0 17 -53 28.5t-146 28.5q-26 5 -54 14t-51 26.5t-38.5 45.5t-15.5 70q0 27 12.5 61.5t33 72t47.5 74t57 66.5q31 31 69.5 62.5t79 56.5t80 40.5t74.5 15.5q13 0 26 -3.5t23.5 -8.5t17 -11.5t6.5 -13.5zM658 850q0 -6 -4.5 -18.5
t-11.5 -24.5t-14.5 -22t-13.5 -12t-25 -9l-43.5 -16.5l-50.5 -20t-46 -17.5q-49 -19 -84 -36t-43 -17q-5 0 -9 2.5t-4 10.5q0 5 3.5 15.5t8.5 21t10 19.5t7 12q3 3 10 8t15 9.5t15.5 8l11.5 5.5q-8 2 -17.5 7.5t-17.5 14t-14 19.5t-6 25q0 17 9 38.5t22.5 42.5t28 39
t26.5 30q19 19 37 30t33 16.5t28 7t23 1.5q11 0 23 -4.5t22 -13t16.5 -20t6.5 -25.5q0 -13 -4 -28.5t-10 -29t-12.5 -22.5t-10.5 -9t-14.5 6.5l-23.5 14.5t-27 14.5t-26 6.5q-20 0 -34 -12t-14 -23q0 -3 11.5 -12.5t28.5 -19.5t36 -18t34 -9q12 3 28.5 8l32 9.5l27.5 8
t15 3.5q11 0 11 -15z" />
    <glyph glyph-name="uni06C0" unicode="&#x6d5;&#x654;" horiz-adv-x="577" 
d="M511 294q0 -64 -17 -119.5t-48.5 -96.5t-77.5 -64.5t-104 -23.5q-36 0 -70 17t-60.5 47.5t-42 71.5t-15.5 89q0 24 4.5 46t13.5 45.5t22 50l29 58.5l27.5 51.5t34.5 58t36 47t32 19.5q36 0 77.5 -26.5t76.5 -69.5t58.5 -96t23.5 -105zM432 268q0 9 -22 24.5t-52.5 31.5
t-63.5 27.5t-54 11.5q-14 0 -27 -12.5t-23 -29.5t-16 -34.5t-6 -28.5q0 -13 11.5 -24t28.5 -18.5t35.5 -11.5t33.5 -4q19 0 45.5 4.5t51 13.5t41.5 21.5t17 28.5zM455 879q0 -6 -4.5 -18.5t-11.5 -24.5t-14.5 -22t-13.5 -12t-25 -9l-43.5 -16.5l-50.5 -20t-46 -17.5
q-49 -19 -84 -36t-43 -17q-5 0 -9 2.5t-4 10.5q0 5 3.5 15.5t8.5 21t10 19.5t7 12q3 3 10 8t15 9.5t15.5 8l11.5 5.5q-8 2 -17.5 7.5t-17.5 14t-14 19.5t-6 25q0 17 9 38.5t22.5 42.5t28 39t26.5 30q19 19 37 30t33 16.5t28 7t23 1.5q11 0 23 -4.5t22 -13t16.5 -20
t6.5 -25.5q0 -13 -4 -28.5t-10 -29t-12.5 -22.5t-10.5 -9t-14.5 6.5l-23.5 14.5t-27 14.5t-26 6.5q-20 0 -34 -12t-14 -23q0 -3 11.5 -12.5t28.5 -19.5t36 -18t34 -9q12 3 28.5 8l32 9.5l27.5 8t15 3.5q11 0 11 -15z" />
    <glyph glyph-name="uni06C2" unicode="&#x6c1;&#x654;" horiz-adv-x="577" 
d="M511 294q0 -64 -17 -119.5t-48.5 -96.5t-77.5 -64.5t-104 -23.5q-36 0 -70 17t-60.5 47.5t-42 71.5t-15.5 89q0 24 4.5 46t13.5 45.5t22 50l29 58.5l27.5 51.5t34.5 58t36 47t32 19.5q36 0 77.5 -26.5t76.5 -69.5t58.5 -96t23.5 -105zM432 268q0 9 -22 24.5t-52.5 31.5
t-63.5 27.5t-54 11.5q-14 0 -27 -12.5t-23 -29.5t-16 -34.5t-6 -28.5q0 -13 11.5 -24t28.5 -18.5t35.5 -11.5t33.5 -4q19 0 45.5 4.5t51 13.5t41.5 21.5t17 28.5zM455 879q0 -6 -4.5 -18.5t-11.5 -24.5t-14.5 -22t-13.5 -12t-25 -9l-43.5 -16.5l-50.5 -20t-46 -17.5
q-49 -19 -84 -36t-43 -17q-5 0 -9 2.5t-4 10.5q0 5 3.5 15.5t8.5 21t10 19.5t7 12q3 3 10 8t15 9.5t15.5 8l11.5 5.5q-8 2 -17.5 7.5t-17.5 14t-14 19.5t-6 25q0 17 9 38.5t22.5 42.5t28 39t26.5 30q19 19 37 30t33 16.5t28 7t23 1.5q11 0 23 -4.5t22 -13t16.5 -20
t6.5 -25.5q0 -13 -4 -28.5t-10 -29t-12.5 -22.5t-10.5 -9t-14.5 6.5l-23.5 14.5t-27 14.5t-26 6.5q-20 0 -34 -12t-14 -23q0 -3 11.5 -12.5t28.5 -19.5t36 -18t34 -9q12 3 28.5 8l32 9.5l27.5 8t15 3.5q11 0 11 -15z" />
    <glyph glyph-name="uni0651064B" unicode="&#x64b;&#x651;" 
d="M354 1773q0 -3 -4.5 -17l-10.5 -31.5t-12.5 -33t-10.5 -19.5q-7 -7 -18 -13l-25 -14l-242 -130q-24 -13 -32.5 -19t-16.5 -6q-13 0 -13 14q0 4 3.5 18t8 30t9.5 29.5t9 17.5t11 8.5t21 12.5l248 134l36.5 20t25.5 11q7 0 10 -3.5t3 -8.5zM354 1583q0 -3 -4.5 -17
l-10.5 -31.5t-12.5 -33t-10.5 -19.5q-7 -7 -18 -13l-25 -14l-242 -130q-24 -13 -32.5 -19t-16.5 -6q-13 0 -13 14q0 4 3.5 18t8 30t9.5 29.5t9 17.5t11 8.5t21 12.5l248 134l36.5 20t25.5 11q7 0 10 -3.5t3 -8.5zM365 1230q0 -39 -8 -73.5t-24 -60t-40 -40.5t-56 -15
q-21 0 -37 5.5t-30 16.5l-21.5 -33t-24 -28.5t-31 -20t-40.5 -7.5q-45 0 -71.5 35t-26.5 87q0 11 1.5 29t5.5 38t10 40.5t14 37.5q1 2 13.5 2h17.5q6 0 4.5 -21.5t-1.5 -48t7 -48.5t30 -22q19 0 33 13.5t24 33.5t16 44t10 44.5t6 35t3 16.5q3 4 15 5t19 1q6 0 8.5 -19.5
t7 -42.5t14 -42.5t30.5 -19.5q22 0 34.5 21t18 48.5t6.5 55.5t1 42q3 7 15.5 12.5t17.5 5.5q4 0 9 -11.5t9.5 -29.5t7.5 -40.5t3 -45.5z" />
    <glyph glyph-name="uni0651064C" unicode="&#x64c;&#x651;" 
d="M365 1230q0 -39 -8 -73.5t-24 -60t-40 -40.5t-56 -15q-21 0 -37 5.5t-30 16.5l-21.5 -33t-24 -28.5t-31 -20t-40.5 -7.5q-45 0 -71.5 35t-26.5 87q0 11 1.5 29t5.5 38t10 40.5t14 37.5q1 2 13.5 2h17.5q6 0 4.5 -21.5t-1.5 -48t7 -48.5t30 -22q19 0 33 13.5t24 33.5
t16 44t10 44.5t6 35t3 16.5q3 4 15 5t19 1q6 0 8.5 -19.5t7 -42.5t14 -42.5t30.5 -19.5q22 0 34.5 21t18 48.5t6.5 55.5t1 42q3 7 15.5 12.5t17.5 5.5q4 0 9 -11.5t9.5 -29.5t7.5 -40.5t3 -45.5zM364 1503q0 -19 -3 -36.5t-14 -17.5q-5 0 -16 4.5t-23.5 11.5l-24 14
t-18.5 12q-31 -31 -65.5 -57t-67 -45t-60 -29.5t-44.5 -10.5q-12 0 -24.5 5.5t-12.5 14.5q0 3 5.5 13t12.5 25t12.5 33.5t5.5 38.5q0 29 -11.5 45t-36.5 16q-15 0 -24.5 -10.5t-15.5 -22.5t-9.5 -22.5t-4.5 -10.5q-14 0 -17.5 7.5t-3.5 21.5q0 22 5 51t17 54t31 42.5
t46 17.5q29 0 47 -14t27.5 -35t12.5 -45t3 -44q0 -17 -2 -33.5t-5 -26.5q29 14 58.5 33.5t49.5 34.5q-11 7 -23.5 17t-23 22.5t-17.5 27t-7 30.5q0 21 11.5 51t32.5 57.5t50.5 47.5t64.5 20q43 0 65 -31.5t22 -80.5q0 -18 -4.5 -35.5t-11 -33.5t-14 -30.5t-13.5 -24.5
q20 -17 29 -30.5t9 -41.5zM285 1659q0 29 -17.5 46t-37.5 17q-13 0 -19.5 -12t-6.5 -20q0 -11 11.5 -30.5t53.5 -45.5q4 7 10 19t6 26z" />
    <glyph glyph-name="uni0651064D" unicode="&#x64d;&#x651;" 
d="M354 1397q0 -3 -4.5 -17l-10.5 -31.5t-12.5 -33t-10.5 -19.5q-7 -7 -18 -13l-25 -14l-242 -130q-24 -13 -32.5 -19t-16.5 -6q-13 0 -13 14q0 4 3.5 18t8 30t9.5 29.5t9 17.5t11 8.5t21 12.5l248 134l36.5 20t25.5 11q7 0 10 -3.5t3 -8.5zM354 1207q0 -3 -4.5 -17
l-10.5 -31.5t-12.5 -33t-10.5 -19.5q-7 -7 -18 -13l-25 -14l-242 -130q-24 -13 -32.5 -19t-16.5 -6q-13 0 -13 14q0 4 3.5 18t8 30t9.5 29.5t9 17.5t11 8.5t21 12.5l248 134l36.5 20t25.5 11q7 0 10 -3.5t3 -8.5zM365 1634q0 -39 -8 -73.5t-24 -60t-40 -40.5t-56 -15
q-21 0 -37 5.5t-30 16.5l-21.5 -33t-24 -28.5t-31 -20t-40.5 -7.5q-45 0 -71.5 35t-26.5 87q0 11 1.5 29t5.5 38t10 40.5t14 37.5q1 2 13.5 2h17.5q6 0 4.5 -21.5t-1.5 -48t7 -48.5t30 -22q19 0 33 13.5t24 33.5t16 44t10 44.5t6 35t3 16.5q3 4 15 5t19 1q6 0 8.5 -19.5
t7 -42.5t14 -42.5t30.5 -19.5q22 0 34.5 21t18 48.5t6.5 55.5t1 42q3 7 15.5 12.5t17.5 5.5q4 0 9 -11.5t9.5 -29.5t7.5 -40.5t3 -45.5z" />
    <glyph glyph-name="uni0651064E" unicode="&#x64e;&#x651;" 
d="M354 1593q0 -3 -4.5 -17l-10.5 -31.5t-12.5 -33t-10.5 -19.5q-7 -7 -18 -13l-25 -14l-242 -130q-24 -13 -32.5 -19t-16.5 -6q-13 0 -13 14q0 4 3.5 18t8 30t9.5 29.5t9 17.5t11 8.5t21 12.5l248 134l36.5 20t25.5 11q7 0 10 -3.5t3 -8.5zM365 1230q0 -39 -8 -73.5
t-24 -60t-40 -40.5t-56 -15q-21 0 -37 5.5t-30 16.5l-21.5 -33t-24 -28.5t-31 -20t-40.5 -7.5q-45 0 -71.5 35t-26.5 87q0 11 1.5 29t5.5 38t10 40.5t14 37.5q1 2 13.5 2h17.5q6 0 4.5 -21.5t-1.5 -48t7 -48.5t30 -22q19 0 33 13.5t24 33.5t16 44t10 44.5t6 35t3 16.5
q3 4 15 5t19 1q6 0 8.5 -19.5t7 -42.5t14 -42.5t30.5 -19.5q22 0 34.5 21t18 48.5t6.5 55.5t1 42q3 7 15.5 12.5t17.5 5.5q4 0 9 -11.5t9.5 -29.5t7.5 -40.5t3 -45.5z" />
    <glyph glyph-name="uni0651064F" unicode="&#x64f;&#x651;" 
d="M237 1757q43 0 65 -31.5t22 -80.5q0 -27 -11 -58t-30 -63l35 -24.5t22 -14.5q5 -3 5 -9q0 -8 -7 -23t-16 -30t-17.5 -26.5t-11.5 -11.5q-6 0 -28.5 12t-51.5 32q-40 -45 -80.5 -73.5t-68.5 -28.5q-15 0 -34 4t-37.5 10t-34.5 13.5t-25 14.5q66 25 119.5 53.5t92.5 57.5
q-28 25 -47.5 50.5t-19.5 48.5q0 21 11.5 51.5t32.5 58.5t50.5 48t64.5 20zM158 1646q0 -14 20.5 -35.5t48.5 -44.5q13 23 13 39q0 10 -4.5 21t-12.5 20.5t-19.5 16t-25.5 6.5q-13 0 -16.5 -8.5t-3.5 -14.5zM365 1230q0 -39 -8 -73.5t-24 -60t-40 -40.5t-56 -15
q-21 0 -37 5.5t-30 16.5l-21.5 -33t-24 -28.5t-31 -20t-40.5 -7.5q-45 0 -71.5 35t-26.5 87q0 11 1.5 29t5.5 38t10 40.5t14 37.5q1 2 13.5 2h17.5q6 0 4.5 -21.5t-1.5 -48t7 -48.5t30 -22q19 0 33 13.5t24 33.5t16 44t10 44.5t6 35t3 16.5q3 4 15 5t19 1q6 0 8.5 -19.5
t7 -42.5t14 -42.5t30.5 -19.5q22 0 34.5 21t18 48.5t6.5 55.5t1 42q3 7 15.5 12.5t17.5 5.5q4 0 9 -11.5t9.5 -29.5t7.5 -40.5t3 -45.5z" />
    <glyph glyph-name="uni06510650" unicode="&#x650;&#x651;" 
d="M354 1235q0 -3 -4.5 -17l-10.5 -31.5t-12.5 -33t-10.5 -19.5q-7 -7 -18 -13l-25 -14l-242 -130q-24 -13 -32.5 -19t-16.5 -6q-13 0 -13 14q0 4 3.5 18t8 30t9.5 29.5t9 17.5t11 8.5t21 12.5l248 134l36.5 20t25.5 11q7 0 10 -3.5t3 -8.5zM365 1469q0 -39 -8 -73.5
t-24 -60t-40 -40.5t-56 -15q-21 0 -37 5.5t-30 16.5l-21.5 -33t-24 -28.5t-31 -20t-40.5 -7.5q-45 0 -71.5 35t-26.5 87q0 11 1.5 29t5.5 38t10 40.5t14 37.5q1 2 13.5 2h17.5q6 0 4.5 -21.5t-1.5 -48t7 -48.5t30 -22q19 0 33 13.5t24 33.5t16 44t10 44.5t6 35t3 16.5
q3 4 15 5t19 1q6 0 8.5 -19.5t7 -42.5t14 -42.5t30.5 -19.5q22 0 34.5 21t18 48.5t6.5 55.5t1 42q3 7 15.5 12.5t17.5 5.5q4 0 9 -11.5t9.5 -29.5t7.5 -40.5t3 -45.5z" />
    <glyph glyph-name="uni0654064E" unicode="&#x64e;&#x654;" 
d="M354 1581q0 -3 -4.5 -17l-10.5 -31.5t-12.5 -33t-10.5 -19.5q-7 -7 -18 -13l-25 -14l-242 -130q-24 -13 -32.5 -19t-16.5 -6q-13 0 -13 14q0 4 3.5 18t8 30t9.5 29.5t9 17.5t11 8.5t21 12.5l248 134l36.5 20t25.5 11q7 0 10 -3.5t3 -8.5zM344 1140q0 -6 -4.5 -18.5
t-11.5 -24.5t-14.5 -22t-13.5 -12t-25 -9l-43.5 -16.5l-50.5 -20t-46 -17.5q-49 -19 -84 -36t-43 -17q-5 0 -9 2.5t-4 10.5q0 5 3.5 15.5t8.5 21t10 19.5t7 12q3 3 10 8t15 9.5t15.5 8l11.5 5.5q-8 2 -17.5 7.5t-17.5 14t-14 19.5t-6 25q0 17 9 38.5t22.5 42.5t28 39
t26.5 30q19 19 37 30t33 16.5t28 7t23 1.5q11 0 23 -4.5t22 -13t16.5 -20t6.5 -25.5q0 -13 -4 -28.5t-10 -29t-12.5 -22.5t-10.5 -9t-14.5 6.5l-23.5 14.5t-27 14.5t-26 6.5q-20 0 -34 -12t-14 -23q0 -3 11.5 -12.5t28.5 -19.5t36 -18t34 -9q12 3 28.5 8l32 9.5l27.5 8
t15 3.5q11 0 11 -15z" />
    <glyph glyph-name="uni0654064F" unicode="&#x64f;&#x654;" 
d="M344 1140q0 -6 -4.5 -18.5t-11.5 -24.5t-14.5 -22t-13.5 -12t-25 -9l-43.5 -16.5l-50.5 -20t-46 -17.5q-49 -19 -84 -36t-43 -17q-5 0 -9 2.5t-4 10.5q0 5 3.5 15.5t8.5 21t10 19.5t7 12q3 3 10 8t15 9.5t15.5 8l11.5 5.5q-8 2 -17.5 7.5t-17.5 14t-14 19.5t-6 25
q0 17 9 38.5t22.5 42.5t28 39t26.5 30q19 19 37 30t33 16.5t28 7t23 1.5q11 0 23 -4.5t22 -13t16.5 -20t6.5 -25.5q0 -13 -4 -28.5t-10 -29t-12.5 -22.5t-10.5 -9t-14.5 6.5l-23.5 14.5t-27 14.5t-26 6.5q-20 0 -34 -12t-14 -23q0 -3 11.5 -12.5t28.5 -19.5t36 -18t34 -9
q12 3 28.5 8l32 9.5l27.5 8t15 3.5q11 0 11 -15zM237 1757q43 0 65 -31.5t22 -80.5q0 -27 -11 -58t-30 -63l35 -24.5t22 -14.5q5 -3 5 -9q0 -8 -7 -23t-16 -30t-17.5 -26.5t-11.5 -11.5q-6 0 -28.5 12t-51.5 32q-40 -45 -80.5 -73.5t-68.5 -28.5q-15 0 -34 4t-37.5 10
t-34.5 13.5t-25 14.5q66 25 119.5 53.5t92.5 57.5q-28 25 -47.5 50.5t-19.5 48.5q0 21 11.5 51.5t32.5 58.5t50.5 48t64.5 20zM158 1646q0 -14 20.5 -35.5t48.5 -44.5q13 23 13 39q0 10 -4.5 21t-12.5 20.5t-19.5 16t-25.5 6.5q-13 0 -16.5 -8.5t-3.5 -14.5z" />
    <glyph glyph-name="uni06510670" unicode="&#x651;&#x670;" 
d="M182 1391q0 -6 -3.5 -16.5t-8.5 -21t-11 -18.5t-12 -8q-2 0 -4.5 7l-5.5 16l-6 18t-5 13q-12 26 -28 51.5t-34.5 48t-37.5 42t-36 34.5q-2 1 -8.5 16.5t-13.5 35.5t-12.5 39.5t-5.5 29.5t2 20t16 10q13 0 30.5 -5t35 -13.5t34 -20.5t27.5 -26q24 -30 40.5 -70t27 -77.5
t15 -67t4.5 -37.5zM365 1200q0 -39 -8 -73.5t-24 -60t-40 -40.5t-56 -15q-21 0 -37 5.5t-30 16.5l-21.5 -33t-24 -28.5t-31 -20t-40.5 -7.5q-45 0 -71.5 35t-26.5 87q0 11 1.5 29t5.5 38t10 40.5t14 37.5q1 2 13.5 2h17.5q6 0 4.5 -21.5t-1.5 -48t7 -48.5t30 -22
q19 0 33 13.5t24 33.5t16 44t10 44.5t6 35t3 16.5q3 4 15 5t19 1q6 0 8.5 -19.5t7 -42.5t14 -42.5t30.5 -19.5q22 0 34.5 21t18 48.5t6.5 55.5t1 42q3 7 15.5 12.5t17.5 5.5q4 0 9 -11.5t9.5 -29.5t7.5 -40.5t3 -45.5z" />
    <glyph glyph-name="uni0622.fina" unicode="&#x622;" horiz-adv-x="389" arabic-form="final" 
d="M530 1276q0 -14 -21.5 -30.5t-56.5 -34t-80 -33.5t-91 -29t-89.5 -20.5t-76.5 -7.5q-34 0 -65.5 1t-56.5 3q-29 2 -55 4q-9 0 -13.5 -14t-9 -30.5t-12 -30.5t-22.5 -14q-19 0 -36 14.5t-29.5 35t-20 43.5t-7.5 41q0 24 5.5 45.5t19.5 37.5t38.5 25.5t62.5 9.5
q19 0 43.5 -3t52.5 -7t58 -7t61 -3q86 0 152.5 6.5t113 14t73.5 14t35 6.5q10 0 15.5 -3.5t8 -9t3 -12t0.5 -12.5zM371 0q-89 0 -144.5 46t-73.5 153q-12 72 -23.5 174.5l-25.5 226.5q-5 45 -9.5 76.5t-7.5 55.5t-5 42t-2 35q0 15 15 45t34 60.5t36 53.5t21 23q9 0 19.5 -13
t11.5 -33q7 -142 11.5 -247.5l8 -184t7 -134t8.5 -96.5q3 -23 13.5 -38t26 -24t36 -12.5t43.5 -3.5h35q23 0 36.5 -19.5t13.5 -76.5q0 -61 -15 -85t-35 -24h-35z" />
    <glyph glyph-name="uni0623.fina" unicode="&#x623;" horiz-adv-x="389" arabic-form="final" 
d="M326 1254q0 -6 -4.5 -18.5t-11.5 -24.5t-14.5 -22t-13.5 -12t-25 -9l-43.5 -16.5l-50.5 -20t-46 -17.5q-49 -19 -84 -36t-43 -17q-5 0 -9 2.5t-4 10.5q0 5 3.5 15.5t8.5 21t10 19.5t7 12q3 3 10 8t15 9.5t15.5 8l11.5 5.5q-8 2 -17.5 7.5t-17.5 14t-14 19.5t-6 25
q0 17 9 38.5t22.5 42.5t28 39t26.5 30q19 19 37 30t33 16.5t28 7t23 1.5q11 0 23 -4.5t22 -13t16.5 -20t6.5 -25.5q0 -13 -4 -28.5t-10 -29t-12.5 -22.5t-10.5 -9t-14.5 6.5l-23.5 14.5t-27 14.5t-26 6.5q-20 0 -34 -12t-14 -23q0 -3 11.5 -12.5t28.5 -19.5t36 -18t34 -9
q12 3 28.5 8l32 9.5l27.5 8t15 3.5q11 0 11 -15zM371 0q-89 0 -144.5 46t-73.5 153q-12 72 -23.5 174.5l-25.5 226.5q-5 45 -9.5 76.5t-7.5 55.5t-5 42t-2 35q0 15 15 45t34 60.5t36 53.5t21 23q9 0 19.5 -13t11.5 -33q7 -142 11.5 -247.5l8 -184t7 -134t8.5 -96.5
q3 -23 13.5 -38t26 -24t36 -12.5t43.5 -3.5h35q23 0 36.5 -19.5t13.5 -76.5q0 -61 -15 -85t-35 -24h-35z" />
    <glyph glyph-name="uni0625.fina" unicode="&#x625;" horiz-adv-x="389" arabic-form="final" 
d="M407 -407q0 -6 -4.5 -18.5t-11.5 -24.5t-14.5 -22t-13.5 -12t-25 -9l-43.5 -16.5l-50.5 -20t-46 -17.5q-49 -19 -84 -36t-43 -17q-5 0 -9 2.5t-4 10.5q0 5 3.5 15.5t8.5 21t10 19.5t7 12q3 3 10 8t15 9.5t15.5 8l11.5 5.5q-8 2 -17.5 7.5t-17.5 14t-14 19.5t-6 25
q0 17 9 38.5t22.5 42.5t28 39t26.5 30q19 19 37 30t33 16.5t28 7t23 1.5q11 0 23 -4.5t22 -13t16.5 -20t6.5 -25.5q0 -13 -4 -28.5t-10 -29t-12.5 -22.5t-10.5 -9t-14.5 6.5l-23.5 14.5t-27 14.5t-26 6.5q-20 0 -34 -12t-14 -23q0 -3 11.5 -12.5t28.5 -19.5t36 -18t34 -9
q12 3 28.5 8l32 9.5l27.5 8t15 3.5q11 0 11 -15zM371 0q-89 0 -144.5 46t-73.5 153q-12 72 -23.5 174.5l-25.5 226.5q-5 45 -9.5 76.5t-7.5 55.5t-5 42t-2 35q0 15 15 45t34 60.5t36 53.5t21 23q9 0 19.5 -13t11.5 -33q7 -142 11.5 -247.5l8 -184t7 -134t8.5 -96.5
q3 -23 13.5 -38t26 -24t36 -12.5t43.5 -3.5h35q23 0 36.5 -19.5t13.5 -76.5q0 -61 -15 -85t-35 -24h-35z" />
    <glyph glyph-name="uni0627.fina" unicode="&#x627;" horiz-adv-x="389" arabic-form="final" 
d="M371 0q-89 0 -144.5 46t-73.5 153q-12 72 -23.5 174.5l-25.5 226.5q-5 45 -9.5 76.5t-7.5 55.5t-5 42t-2 35q0 15 15 45t34 60.5t36 53.5t21 23q9 0 19.5 -13t11.5 -33q7 -142 11.5 -247.5l8 -184t7 -134t8.5 -96.5q3 -23 13.5 -38t26 -24t36 -12.5t43.5 -3.5h35
q23 0 36.5 -19.5t13.5 -76.5q0 -61 -15 -85t-35 -24h-35z" />
    <glyph glyph-name="uni0672.fina" unicode="&#x672;" horiz-adv-x="389" 
d="M325 1257q0 -3 -3.5 -14.5t-9.5 -24t-14 -24t-17 -14.5q-7 -2 -24.5 -8l-40 -14l-47 -17.5l-45.5 -17.5q-50 -19 -89 -38t-74 -19q-17 0 -34 6t-33.5 13.5t-32 13.5t-30.5 6t-32.5 -5.5t-33 -12.5l-27 -12.5t-15.5 -5.5q-14 0 -14 16q0 5 20.5 22.5t48.5 36.5t58 34
t49 15q16 0 30 -5t27 -11.5t25 -11.5t24 -5h10.5t10.5 1.5t16.5 5l28.5 9.5q-8 2 -17.5 7.5t-17.5 14t-14 19.5t-6 25q0 17 9 38t22 42t28 39.5t27 30.5q37 37 68.5 46t52.5 9q10 0 22 -4.5t22.5 -13t17 -20t6.5 -25.5q0 -13 -4 -28.5t-10 -29t-12.5 -22.5t-10.5 -9
t-14.5 6.5l-23.5 14.5t-27 14.5t-26 6.5q-20 0 -34 -12t-14 -23q0 -3 11.5 -12t28 -19t36 -18.5t34.5 -9.5q12 3 28 8t32 9.5l28 8t15 3.5q5 0 8 -4.5t3 -10.5zM371 0q-89 0 -144.5 46t-73.5 153q-12 72 -23.5 174.5l-25.5 226.5q-5 45 -9.5 76.5t-7.5 55.5t-5 42t-2 35
q0 15 15 45t34 60.5t36 53.5t21 23q9 0 19.5 -13t11.5 -33q7 -142 11.5 -247.5l8 -184t7 -134t8.5 -96.5q3 -23 13.5 -38t26 -24t36 -12.5t43.5 -3.5h35q23 0 36.5 -19.5t13.5 -76.5q0 -61 -15 -85t-35 -24h-35z" />
    <glyph glyph-name="uni0673.fina" unicode="&#x673;" horiz-adv-x="389" 
d="M404 -304q0 -3 -3.5 -14.5t-9.5 -24t-14 -24t-17 -14.5q-7 -2 -24.5 -8l-40 -14l-47 -17.5l-45.5 -17.5q-50 -19 -89 -38t-74 -19q-17 0 -34 6t-33.5 13.5t-32 13.5t-30.5 6t-32.5 -5.5t-33 -12.5l-27 -12.5t-15.5 -5.5q-14 0 -14 16q0 5 20.5 22.5t48.5 36.5t58 34
t49 15q16 0 30 -5t27 -11.5t25 -11.5t24 -5h10.5t10.5 1.5t16.5 5l28.5 9.5q-8 2 -17.5 7.5t-17.5 14t-14 19.5t-6 25q0 17 9 38t22 42t28 39.5t27 30.5q37 37 68.5 46t52.5 9q10 0 22 -4.5t22.5 -13t17 -20t6.5 -25.5q0 -13 -4 -28.5t-10 -29t-12.5 -22.5t-10.5 -9
t-14.5 6.5l-23.5 14.5t-27 14.5t-26 6.5q-20 0 -34 -12t-14 -23q0 -3 11.5 -12t28 -19t36 -18.5t34.5 -9.5q12 3 28 8t32 9.5l28 8t15 3.5q5 0 8 -4.5t3 -10.5zM371 0q-89 0 -144.5 46t-73.5 153q-12 72 -23.5 174.5l-25.5 226.5q-5 45 -9.5 76.5t-7.5 55.5t-5 42t-2 35
q0 15 15 45t34 60.5t36 53.5t21 23q9 0 19.5 -13t11.5 -33q7 -142 11.5 -247.5l8 -184t7 -134t8.5 -96.5q3 -23 13.5 -38t26 -24t36 -12.5t43.5 -3.5h35q23 0 36.5 -19.5t13.5 -76.5q0 -61 -15 -85t-35 -24h-35z" />
    <glyph glyph-name="uni0675.fina" unicode="&#x675;" horiz-adv-x="389" 
d="M371 0q-89 0 -144.5 46t-73.5 153q-12 72 -23.5 174.5l-25.5 226.5q-5 45 -9.5 76.5t-7.5 55.5t-5 42t-2 35q0 15 15 45t34 60.5t36 53.5t21 23q9 0 19.5 -13t11.5 -33q7 -142 11.5 -247.5l8 -184t7 -134t8.5 -96.5q3 -23 13.5 -38t26 -24t36 -12.5t43.5 -3.5h35
q23 0 36.5 -19.5t13.5 -76.5q0 -61 -15 -85t-35 -24h-35zM506 1266q0 -6 -4.5 -18.5t-11.5 -24.5t-14.5 -22t-13.5 -12t-25 -9l-43.5 -16.5l-50.5 -20t-46 -17.5q-49 -19 -84 -36t-43 -17q-5 0 -9 2.5t-4 10.5q0 5 3.5 15.5t8.5 21t10 19.5t7 12q3 3 10 8t15 9.5t15.5 8
l11.5 5.5q-8 2 -17.5 7.5t-17.5 14t-14 19.5t-6 25q0 17 9 38.5t22.5 42.5t28 39t26.5 30q19 19 37 30t33 16.5t28 7t23 1.5q11 0 23 -4.5t22 -13t16.5 -20t6.5 -25.5q0 -13 -4 -28.5t-10 -29t-12.5 -22.5t-10.5 -9t-14.5 6.5l-23.5 14.5t-27 14.5t-26 6.5q-20 0 -34 -12
t-14 -23q0 -3 11.5 -12.5t28.5 -19.5t36 -18t34 -9q12 3 28.5 8l32 9.5l27.5 8t15 3.5q11 0 11 -15z" />
    <glyph glyph-name="uni0671.fina" unicode="&#x671;" horiz-adv-x="389" arabic-form="final" 
d="M261 1359q24 0 41 -8.5t28.5 -22t16.5 -30.5t5 -35q0 -27 -12 -57t-36 -55t-58.5 -41.5t-79.5 -16.5q-20 0 -46.5 0.5t-52.5 1.5t-48 1.5t-32 0.5q-28 0 -35 -4t-10 -12q-2 -5 -7 -16t-13 -11q-11 0 -11 26q0 7 2 22.5t9 32t20 31t35 20.5q8 2 22.5 3.5t31 2t32.5 0.5h28
q11 28 27.5 57.5t38.5 54t48 40t56 15.5zM285 1228q0 9 -6.5 18.5t-26.5 9.5q-12 0 -27 -6.5t-29.5 -16t-26 -21t-17.5 -20.5q69 0 101 9.5t32 26.5zM371 0q-89 0 -144.5 46t-73.5 153q-12 72 -23.5 174.5l-25.5 226.5q-5 45 -9.5 76.5t-7.5 55.5t-5 42t-2 35q0 15 15 45
t34 60.5t36 53.5t21 23q9 0 19.5 -13t11.5 -33q7 -142 11.5 -247.5l8 -184t7 -134t8.5 -96.5q3 -23 13.5 -38t26 -24t36 -12.5t43.5 -3.5h35q23 0 36.5 -19.5t13.5 -76.5q0 -61 -15 -85t-35 -24h-35z" />
    <glyph glyph-name="uni0648.fina" unicode="&#x648;" horiz-adv-x="653" arabic-form="final" 
d="M721 103q0 -12 -1.5 -29.5t-7 -34t-16.5 -28t-30 -11.5h-39q-11 0 -25 -0.5t-28 -0.5q-16 -1 -32 -1q-9 -34 -22.5 -78.5t-32 -91.5t-43 -93t-56.5 -83q-53 -59 -104 -89t-105 -30q-23 0 -53.5 10.5t-62 26.5t-62 35t-54.5 36t-38.5 29t-14.5 15t2.5 8t6.5 10.5t8.5 9
t8.5 3.5t16.5 -4t30 -8.5t39.5 -8.5t47 -4q49 0 111.5 23.5t122 65t105.5 97t62 119.5q-56 3 -98 10t-70 24t-42.5 46t-14.5 76q0 30 8.5 68t23.5 77.5t34 77t40.5 66.5t43 47t40.5 18q18 0 35 -17t32.5 -44t28.5 -60.5t22.5 -67t15 -63.5t5.5 -49h108q19 0 30 -11.5
t16.5 -28t7 -33.5t1.5 -29zM467 207q0 8 -8.5 24t-22.5 31.5t-31 27t-34 11.5q-6 0 -13.5 -5.5t-13.5 -13.5t-10.5 -16.5t-4.5 -15.5q0 -14 36 -27.5t102 -15.5z" />
    <glyph glyph-name="uni0676.fina" unicode="&#x676;" horiz-adv-x="653" 
d="M721 103q0 -12 -1.5 -29.5t-7 -34t-16.5 -28t-30 -11.5h-39q-11 0 -25 -0.5t-28 -0.5q-16 -1 -32 -1q-9 -34 -22.5 -78.5t-32 -91.5t-43 -93t-56.5 -83q-53 -59 -104 -89t-105 -30q-23 0 -53.5 10.5t-62 26.5t-62 35t-54.5 36t-38.5 29t-14.5 15t2.5 8t6.5 10.5t8.5 9
t8.5 3.5t16.5 -4t30 -8.5t39.5 -8.5t47 -4q49 0 111.5 23.5t122 65t105.5 97t62 119.5q-56 3 -98 10t-70 24t-42.5 46t-14.5 76q0 30 8.5 68t23.5 77.5t34 77t40.5 66.5t43 47t40.5 18q18 0 35 -17t32.5 -44t28.5 -60.5t22.5 -67t15 -63.5t5.5 -49h108q19 0 30 -11.5
t16.5 -28t7 -33.5t1.5 -29zM467 207q0 8 -8.5 24t-22.5 31.5t-31 27t-34 11.5q-6 0 -13.5 -5.5t-13.5 -13.5t-10.5 -16.5t-4.5 -15.5q0 -14 36 -27.5t102 -15.5zM774 826q0 -6 -4.5 -18.5t-11.5 -24.5t-14.5 -22t-13.5 -12t-25 -9l-43.5 -16.5l-50.5 -20t-46 -17.5
q-49 -19 -84 -36t-43 -17q-5 0 -9 2.5t-4 10.5q0 5 3.5 15.5t8.5 21t10 19.5t7 12q3 3 10 8t15 9.5t15.5 8l11.5 5.5q-8 2 -17.5 7.5t-17.5 14t-14 19.5t-6 25q0 17 9 38.5t22.5 42.5t28 39t26.5 30q19 19 37 30t33 16.5t28 7t23 1.5q11 0 23 -4.5t22 -13t16.5 -20
t6.5 -25.5q0 -13 -4 -28.5t-10 -29t-12.5 -22.5t-10.5 -9t-14.5 6.5l-23.5 14.5t-27 14.5t-26 6.5q-20 0 -34 -12t-14 -23q0 -3 11.5 -12.5t28.5 -19.5t36 -18t34 -9q12 3 28.5 8l32 9.5l27.5 8t15 3.5q11 0 11 -15z" />
    <glyph glyph-name="uni0677.fina" unicode="&#x677;" horiz-adv-x="653" 
d="M721 103q0 -12 -1.5 -29.5t-7 -34t-16.5 -28t-30 -11.5h-39q-11 0 -25 -0.5t-28 -0.5q-16 -1 -32 -1q-9 -34 -22.5 -78.5t-32 -91.5t-43 -93t-56.5 -83q-53 -59 -104 -89t-105 -30q-23 0 -53.5 10.5t-62 26.5t-62 35t-54.5 36t-38.5 29t-14.5 15t2.5 8t6.5 10.5t8.5 9
t8.5 3.5t16.5 -4t30 -8.5t39.5 -8.5t47 -4q49 0 111.5 23.5t122 65t105.5 97t62 119.5q-56 3 -98 10t-70 24t-42.5 46t-14.5 76q0 30 8.5 68t23.5 77.5t34 77t40.5 66.5t43 47t40.5 18q18 0 35 -17t32.5 -44t28.5 -60.5t22.5 -67t15 -63.5t5.5 -49h108q19 0 30 -11.5
t16.5 -28t7 -33.5t1.5 -29zM467 207q0 8 -8.5 24t-22.5 31.5t-31 27t-34 11.5q-6 0 -13.5 -5.5t-13.5 -13.5t-10.5 -16.5t-4.5 -15.5q0 -14 36 -27.5t102 -15.5zM276 993q43 0 65 -31.5t22 -80.5q0 -27 -11 -58t-30 -63l35 -24.5t22 -14.5q5 -3 5 -9q0 -8 -7 -23t-16 -30
t-17.5 -26.5t-11.5 -11.5q-6 0 -28.5 12t-51.5 32q-40 -45 -80.5 -73.5t-68.5 -28.5q-15 0 -34 4t-37.5 10t-34.5 13.5t-25 14.5q66 25 119.5 53.5t92.5 57.5q-28 25 -47.5 50.5t-19.5 48.5q0 21 11.5 51.5t32.5 58.5t50.5 48t64.5 20zM197 882q0 -14 20.5 -35.5t48.5 -44.5
q13 23 13 39q0 10 -4.5 21t-12.5 20.5t-19.5 16t-25.5 6.5q-13 0 -16.5 -8.5t-3.5 -14.5zM774 867q0 -6 -4.5 -18.5t-11.5 -24.5t-14.5 -22t-13.5 -12t-25 -9l-43.5 -16.5l-50.5 -20t-46 -17.5q-49 -19 -84 -36t-43 -17q-5 0 -9 2.5t-4 10.5q0 5 3.5 15.5t8.5 21t10 19.5
t7 12q3 3 10 8t15 9.5t15.5 8l11.5 5.5q-8 2 -17.5 7.5t-17.5 14t-14 19.5t-6 25q0 17 9 38.5t22.5 42.5t28 39t26.5 30q19 19 37 30t33 16.5t28 7t23 1.5q11 0 23 -4.5t22 -13t16.5 -20t6.5 -25.5q0 -13 -4 -28.5t-10 -29t-12.5 -22.5t-10.5 -9t-14.5 6.5l-23.5 14.5
t-27 14.5t-26 6.5q-20 0 -34 -12t-14 -23q0 -3 11.5 -12.5t28.5 -19.5t36 -18t34 -9q12 3 28.5 8l32 9.5l27.5 8t15 3.5q11 0 11 -15z" />
    <glyph glyph-name="uni06C4.fina" unicode="&#x6c4;" horiz-adv-x="653" 
d="M721 103q0 -12 -1.5 -29.5t-7 -34t-16.5 -28t-30 -11.5h-39q-11 0 -25 -0.5t-28 -0.5q-16 -1 -32 -1q-9 -34 -22.5 -78.5t-32 -91.5t-43 -93t-56.5 -83q-53 -59 -104 -89t-105 -30q-23 0 -53.5 10.5t-62 26.5t-62 35t-54.5 36t-38.5 29t-14.5 15t2.5 8t6.5 10.5t8.5 9
t8.5 3.5t16.5 -4t30 -8.5t39.5 -8.5t47 -4t52 6q-29 40 -29 119q0 31 11 61t32 54t50 38.5t65 14.5q26 0 48 -13.5t38.5 -35t25.5 -47.5t10 -51q35 35 61 74.5t37 84.5q-56 3 -98 10t-70 24t-42.5 46t-14.5 76q0 30 8.5 68t23.5 77.5t34 77t40.5 66.5t43 47t40.5 18
q18 0 35 -17t32.5 -44t28.5 -60.5t22.5 -67t15 -63.5t5.5 -49h108q19 0 30 -11.5t16.5 -28t7 -33.5t1.5 -29zM278 -191q0 8 -9 19.5t-22.5 22.5t-28.5 18.5t-27 7.5q-25 0 -37 -16.5t-12 -34.5q0 -19 20.5 -33.5t51.5 -14.5q9 0 20 3t21 7.5t16.5 10t6.5 10.5zM467 207
q0 8 -8.5 24t-22.5 31.5t-31 27t-34 11.5q-6 0 -13.5 -5.5t-13.5 -13.5t-10.5 -16.5t-4.5 -15.5q0 -14 36 -27.5t102 -15.5z" />
    <glyph glyph-name="uni06C5.fina" unicode="&#x6c5;" horiz-adv-x="653" arabic-form="final" 
d="M608 -159q-14 3 -30 6l-30 4.5t-31 2.5h-20q-19 -54 -45.5 -107t-63.5 -95q-53 -59 -104 -89t-105 -30q-23 0 -53.5 10.5t-62 26.5t-62 35t-54.5 36t-38.5 29t-14.5 15t2.5 8t6.5 10.5t8.5 9t8.5 3.5t16.5 -4t30 -8.5t39.5 -8.5t47 -4q34 0 75.5 11.5t84.5 33t84.5 51.5
t75.5 67h-93q-18 0 -34 4t-28 9q-14 5 -25 13l32 76q11 -4 23 -7q11 -3 24 -5t28 -2h134q6 14 11 27t9 27q-56 3 -98 10t-70 24t-42.5 46t-14.5 76q0 30 8.5 68t23.5 77.5t34 77t40.5 66.5t43 47t40.5 18q18 0 35 -17t32.5 -44t28.5 -60.5t22.5 -67t15 -63.5t5.5 -49h108
q19 0 30 -11.5t16.5 -28t7 -33.5t1.5 -29t-1.5 -29.5t-7 -34t-16.5 -28t-30 -11.5h-39q-11 0 -25 -0.5t-28 -0.5q-16 -1 -32 -1l-16 -56h9q17 0 35 -3.5t34 -7.5q18 -5 36 -11zM467 207q0 8 -8.5 24t-22.5 31.5t-31 27t-34 11.5q-6 0 -13.5 -5.5t-13.5 -13.5t-10.5 -16.5
t-4.5 -15.5q0 -14 36 -27.5t102 -15.5z" />
    <glyph glyph-name="uni06C6.fina" unicode="&#x6c6;" horiz-adv-x="653" arabic-form="final" 
d="M721 103q0 -12 -1.5 -29.5t-7 -34t-16.5 -28t-30 -11.5h-39q-11 0 -25 -0.5t-28 -0.5q-16 -1 -32 -1q-9 -34 -22.5 -78.5t-32 -91.5t-43 -93t-56.5 -83q-53 -59 -104 -89t-105 -30q-23 0 -53.5 10.5t-62 26.5t-62 35t-54.5 36t-38.5 29t-14.5 15t2.5 8t6.5 10.5t8.5 9
t8.5 3.5t16.5 -4t30 -8.5t39.5 -8.5t47 -4q49 0 111.5 23.5t122 65t105.5 97t62 119.5q-56 3 -98 10t-70 24t-42.5 46t-14.5 76q0 30 8.5 68t23.5 77.5t34 77t40.5 66.5t43 47t40.5 18q18 0 35 -17t32.5 -44t28.5 -60.5t22.5 -67t15 -63.5t5.5 -49h108q19 0 30 -11.5
t16.5 -28t7 -33.5t1.5 -29zM467 207q0 8 -8.5 24t-22.5 31.5t-31 27t-34 11.5q-6 0 -13.5 -5.5t-13.5 -13.5t-10.5 -16.5t-4.5 -15.5q0 -14 36 -27.5t102 -15.5zM184 930q0 18 17 18h52q3 0 14.5 -11l27.5 -27l34.5 -35.5l34.5 -35.5l28 -27t16 -11t16 11l28 27l34.5 35.5
l34.5 35.5l27.5 27t14.5 11h52q17 0 17 -18q0 -1 -9.5 -17l-24 -40t-33.5 -52.5l-37.5 -56l-35.5 -50.5t-29 -35l-14 -14t-13 -6h-56q-6 0 -12.5 6l-14.5 14q-12 12 -29 35l-35.5 50.5l-37.5 56t-33.5 52.5l-24 39.5t-9.5 17.5z" />
    <glyph glyph-name="uni06C7.fina" unicode="&#x6c7;" horiz-adv-x="653" arabic-form="final" 
d="M721 103q0 -12 -1.5 -29.5t-7 -34t-16.5 -28t-30 -11.5h-39q-11 0 -25 -0.5t-28 -0.5q-16 -1 -32 -1q-9 -34 -22.5 -78.5t-32 -91.5t-43 -93t-56.5 -83q-53 -59 -104 -89t-105 -30q-23 0 -53.5 10.5t-62 26.5t-62 35t-54.5 36t-38.5 29t-14.5 15t2.5 8t6.5 10.5t8.5 9
t8.5 3.5t16.5 -4t30 -8.5t39.5 -8.5t47 -4q49 0 111.5 23.5t122 65t105.5 97t62 119.5q-56 3 -98 10t-70 24t-42.5 46t-14.5 76q0 30 8.5 68t23.5 77.5t34 77t40.5 66.5t43 47t40.5 18q18 0 35 -17t32.5 -44t28.5 -60.5t22.5 -67t15 -63.5t5.5 -49h108q19 0 30 -11.5
t16.5 -28t7 -33.5t1.5 -29zM467 207q0 8 -8.5 24t-22.5 31.5t-31 27t-34 11.5q-6 0 -13.5 -5.5t-13.5 -13.5t-10.5 -16.5t-4.5 -15.5q0 -14 36 -27.5t102 -15.5zM434 1060q43 0 65 -31.5t22 -80.5q0 -27 -11 -58t-30 -63l35 -24.5t22 -14.5q5 -3 5 -9q0 -8 -7 -23t-16 -30
t-17.5 -26.5t-11.5 -11.5q-6 0 -28.5 12t-51.5 32q-40 -45 -80.5 -73.5t-68.5 -28.5q-15 0 -34 4t-37.5 10t-34.5 13.5t-25 14.5q66 25 119.5 53.5t92.5 57.5q-28 25 -47.5 50.5t-19.5 48.5q0 21 11.5 51.5t32.5 58.5t50.5 48t64.5 20zM355 949q0 -14 20.5 -35.5t48.5 -44.5
q13 23 13 39q0 10 -4.5 21t-12.5 20.5t-19.5 16t-25.5 6.5q-13 0 -16.5 -8.5t-3.5 -14.5z" />
    <glyph glyph-name="uni06C8.fina" unicode="&#x6c8;" horiz-adv-x="653" arabic-form="final" 
d="M721 103q0 -12 -1.5 -29.5t-7 -34t-16.5 -28t-30 -11.5h-39q-11 0 -25 -0.5t-28 -0.5q-16 -1 -32 -1q-9 -34 -22.5 -78.5t-32 -91.5t-43 -93t-56.5 -83q-53 -59 -104 -89t-105 -30q-23 0 -53.5 10.5t-62 26.5t-62 35t-54.5 36t-38.5 29t-14.5 15t2.5 8t6.5 10.5t8.5 9
t8.5 3.5t16.5 -4t30 -8.5t39.5 -8.5t47 -4q49 0 111.5 23.5t122 65t105.5 97t62 119.5q-56 3 -98 10t-70 24t-42.5 46t-14.5 76q0 30 8.5 68t23.5 77.5t34 77t40.5 66.5t43 47t40.5 18q18 0 35 -17t32.5 -44t28.5 -60.5t22.5 -67t15 -63.5t5.5 -49h108q19 0 30 -11.5
t16.5 -28t7 -33.5t1.5 -29zM467 207q0 8 -8.5 24t-22.5 31.5t-31 27t-34 11.5q-6 0 -13.5 -5.5t-13.5 -13.5t-10.5 -16.5t-4.5 -15.5q0 -14 36 -27.5t102 -15.5zM339 613v382l104 63v-382z" />
    <glyph glyph-name="uni06C9.fina" unicode="&#x6c9;" horiz-adv-x="653" arabic-form="final" 
d="M721 103q0 -12 -1.5 -29.5t-7 -34t-16.5 -28t-30 -11.5h-39q-11 0 -25 -0.5t-28 -0.5q-16 -1 -32 -1q-9 -34 -22.5 -78.5t-32 -91.5t-43 -93t-56.5 -83q-53 -59 -104 -89t-105 -30q-23 0 -53.5 10.5t-62 26.5t-62 35t-54.5 36t-38.5 29t-14.5 15t2.5 8t6.5 10.5t8.5 9
t8.5 3.5t16.5 -4t30 -8.5t39.5 -8.5t47 -4q49 0 111.5 23.5t122 65t105.5 97t62 119.5q-56 3 -98 10t-70 24t-42.5 46t-14.5 76q0 30 8.5 68t23.5 77.5t34 77t40.5 66.5t43 47t40.5 18q18 0 35 -17t32.5 -44t28.5 -60.5t22.5 -67t15 -63.5t5.5 -49h108q19 0 30 -11.5
t16.5 -28t7 -33.5t1.5 -29zM467 207q0 8 -8.5 24t-22.5 31.5t-31 27t-34 11.5q-6 0 -13.5 -5.5t-13.5 -13.5t-10.5 -16.5t-4.5 -15.5q0 -14 36 -27.5t102 -15.5zM664 614q0 -5 -1 -8t-9 -3h-52q-5 0 -19.5 11l-34 27l-41.5 35l-41.5 35t-34.5 27t-19 11t-19 -11t-34.5 -27
l-41 -35l-41 -35l-33.5 -27t-17 -11h-58q-6 0 -8 3.5t-2 7.5q0 2 9.5 15l25 33.5l35 46l40 51l40 49l34.5 40.5l17.5 20t15.5 9h76q8 0 14.5 -9t16.5 -18q23 -24 54 -62l59.5 -75t48.5 -66t20 -34z" />
    <glyph glyph-name="uni06CA.fina" unicode="&#x6ca;" horiz-adv-x="653" 
d="M721 103q0 -12 -1.5 -29.5t-7 -34t-16.5 -28t-30 -11.5h-39q-11 0 -25 -0.5t-28 -0.5q-16 -1 -32 -1q-9 -34 -22.5 -78.5t-32 -91.5t-43 -93t-56.5 -83q-53 -59 -104 -89t-105 -30q-23 0 -53.5 10.5t-62 26.5t-62 35t-54.5 36t-38.5 29t-14.5 15t2.5 8t6.5 10.5t8.5 9
t8.5 3.5t16.5 -4t30 -8.5t39.5 -8.5t47 -4q49 0 111.5 23.5t122 65t105.5 97t62 119.5q-56 3 -98 10t-70 24t-42.5 46t-14.5 76q0 30 8.5 68t23.5 77.5t34 77t40.5 66.5t43 47t40.5 18q18 0 35 -17t32.5 -44t28.5 -60.5t22.5 -67t15 -63.5t5.5 -49h108q19 0 30 -11.5
t16.5 -28t7 -33.5t1.5 -29zM467 207q0 8 -8.5 24t-22.5 31.5t-31 27t-34 11.5q-6 0 -13.5 -5.5t-13.5 -13.5t-10.5 -16.5t-4.5 -15.5q0 -14 36 -27.5t102 -15.5zM493 893q6 0 27 -14t44 -31.5t41 -34t18 -20.5t-6 -16t-15.5 -28t-21 -33.5t-22 -32t-19 -24t-11.5 -9.5
q-4 0 -23.5 14l-42.5 31l-60 46q-6 6 -13 6q-3 0 -8 -9l-41 -58q-16 -22 -31 -39.5t-20 -17.5q-2 0 -12.5 6.5t-25.5 17l-31 22.5l-30 23t-23 19.5t-9 11.5q0 4 6.5 16t16.5 28.5l21.5 34.5t22.5 32.5l19 24.5t10 10q7 0 27 -14.5l42 -31.5q26 -20 55 -45q6 -7 11 -7
q3 0 5.5 2t7.5 9l42 55l30.5 38.5t18.5 17.5z" />
    <glyph glyph-name="uni06CB.fina" unicode="&#x6cb;" horiz-adv-x="653" arabic-form="final" 
d="M721 103q0 -12 -1.5 -29.5t-7 -34t-16.5 -28t-30 -11.5h-39q-11 0 -25 -0.5t-28 -0.5q-16 -1 -32 -1q-9 -34 -22.5 -78.5t-32 -91.5t-43 -93t-56.5 -83q-53 -59 -104 -89t-105 -30q-23 0 -53.5 10.5t-62 26.5t-62 35t-54.5 36t-38.5 29t-14.5 15t2.5 8t6.5 10.5t8.5 9
t8.5 3.5t16.5 -4t30 -8.5t39.5 -8.5t47 -4q49 0 111.5 23.5t122 65t105.5 97t62 119.5q-56 3 -98 10t-70 24t-42.5 46t-14.5 76q0 30 8.5 68t23.5 77.5t34 77t40.5 66.5t43 47t40.5 18q18 0 35 -17t32.5 -44t28.5 -60.5t22.5 -67t15 -63.5t5.5 -49h108q19 0 30 -11.5
t16.5 -28t7 -33.5t1.5 -29zM467 207q0 8 -8.5 24t-22.5 31.5t-31 27t-34 11.5q-6 0 -13.5 -5.5t-13.5 -13.5t-10.5 -16.5t-4.5 -15.5q0 -14 36 -27.5t102 -15.5zM246 994q0 6 13 29.5t30 49.5t33.5 46.5t22.5 20.5q2 0 13 -6.5t25.5 -16.5l31 -22.5l30.5 -23.5t23 -20t9 -12
q0 -4 -6.5 -16l-16 -28.5t-21.5 -34.5t-23 -32.5t-19.5 -24.5t-11.5 -10q-6 0 -27.5 14t-45 32t-42 34t-18.5 21zM289 631q-6 0 -27 14t-44 32t-41 34t-18 20q0 6 13 29t29.5 48.5t32 46t20.5 20.5q3 0 23 -14.5l43 -31.5l60 -46q7 -5 13 -5q3 0 8 8l41 57q16 22 31 40
t20 18q2 0 12.5 -6.5t25.5 -17l31 -22.5l30 -23t23 -19.5t9 -11.5q0 -4 -6.5 -16t-16.5 -28.5l-21.5 -34.5t-22.5 -32.5l-19 -24.5t-10 -10q-8 0 -27.5 14l-41.5 31q-26 20 -55 46q-6 7 -11 7q-6 0 -13 -10l-42 -56l-31 -38.5t-18 -17.5z" />
    <glyph glyph-name="uni06CF.fina" unicode="&#x6cf;" horiz-adv-x="653" 
d="M721 103q0 -12 -1.5 -29.5t-7 -34t-16.5 -28t-30 -11.5h-39q-11 0 -25 -0.5t-28 -0.5q-16 -1 -32 -1q-9 -34 -22.5 -78.5t-32 -91.5t-43 -93t-56.5 -83q-53 -59 -104 -89t-105 -30q-23 0 -53.5 10.5t-62 26.5t-62 35t-54.5 36t-38.5 29t-14.5 15t2.5 8t6.5 10.5t8.5 9
t8.5 3.5t16.5 -4t30 -8.5t39.5 -8.5t47 -4q49 0 111.5 23.5t122 65t105.5 97t62 119.5q-56 3 -98 10t-70 24t-42.5 46t-14.5 76q0 30 8.5 68t23.5 77.5t34 77t40.5 66.5t43 47t40.5 18q18 0 35 -17t32.5 -44t28.5 -60.5t22.5 -67t15 -63.5t5.5 -49h108q19 0 30 -11.5
t16.5 -28t7 -33.5t1.5 -29zM467 207q0 8 -8.5 24t-22.5 31.5t-31 27t-34 11.5q-6 0 -13.5 -5.5t-13.5 -13.5t-10.5 -16.5t-4.5 -15.5q0 -14 36 -27.5t102 -15.5zM501 778q0 -4 -6.5 -16.5t-16.5 -29.5t-22.5 -36t-24 -34.5t-21.5 -26t-14 -10.5q-3 0 -25.5 14.5t-47.5 33
t-45.5 36t-20.5 22.5q0 4 6.5 17t17 30l23 36t24 34.5t20.5 26t13 10.5q6 0 28.5 -15t47.5 -33.5t44.5 -36t19.5 -22.5z" />
    <glyph glyph-name="uni062F.fina" unicode="&#x62f;" horiz-adv-x="845" arabic-form="final" 
d="M912 103q0 -12 -1.5 -29.5t-7 -34t-16.5 -28t-30 -11.5h-37q-44 0 -78.5 20t-61.5 55t-47.5 82.5t-36.5 103.5q-10 -42 -37 -87t-59 -77q-42 -40 -109 -63.5t-158 -23.5q-36 0 -67.5 8t-55 22.5t-36.5 35.5t-13 47q0 5 4.5 21l11 38.5t15.5 47t17.5 45t16.5 34t14 13.5
q8 0 14 -13.5t12 -23.5q5 -8 12 -21t20.5 -25t36.5 -21t61 -9q52 0 99 8.5t83 28.5t57.5 53t21.5 82q-5 47 -14 86t-18 69.5l-16 53t-7 35.5q0 9 12 36.5t27 57t28.5 52.5t15.5 23q5 0 15.5 -5t12.5 -22l22.5 -153t24 -149.5t26 -125t28.5 -79.5q17 -28 46 -41.5t60 -13.5
h37q19 0 30 -11.5t16.5 -28t7 -33.5t1.5 -29z" />
    <glyph glyph-name="uni0630.fina" unicode="&#x630;" horiz-adv-x="845" arabic-form="final" 
d="M912 103q0 -12 -1.5 -29.5t-7 -34t-16.5 -28t-30 -11.5h-37q-44 0 -78.5 20t-61.5 55t-47.5 82.5t-36.5 103.5q-10 -42 -37 -87t-59 -77q-42 -40 -109 -63.5t-158 -23.5q-36 0 -67.5 8t-55 22.5t-36.5 35.5t-13 47q0 5 4.5 21l11 38.5t15.5 47t17.5 45t16.5 34t14 13.5
q8 0 14 -13.5t12 -23.5q5 -8 12 -21t20.5 -25t36.5 -21t61 -9q52 0 99 8.5t83 28.5t57.5 53t21.5 82q-5 47 -14 86t-18 69.5l-16 53t-7 35.5q0 9 12 36.5t27 57t28.5 52.5t15.5 23q5 0 15.5 -5t12.5 -22l22.5 -153t24 -149.5t26 -125t28.5 -79.5q17 -28 46 -41.5t60 -13.5
h37q19 0 30 -11.5t16.5 -28t7 -33.5t1.5 -29zM650 1038q0 -4 -6.5 -16.5t-16.5 -29.5t-22.5 -36t-24 -34.5t-21.5 -26t-14 -10.5q-3 0 -25.5 14.5t-47.5 33t-45.5 36t-20.5 22.5q0 4 6.5 17t17 30l23 36t24 34.5t20.5 26t13 10.5q6 0 28.5 -15t47.5 -33.5t44.5 -36
t19.5 -22.5z" />
    <glyph glyph-name="uni0688.fina" unicode="&#x688;" horiz-adv-x="845" arabic-form="final" 
d="M912 103q0 -12 -1.5 -29.5t-7 -34t-16.5 -28t-30 -11.5h-37q-44 0 -78.5 20t-61.5 55t-47.5 82.5t-36.5 103.5q-10 -42 -37 -87t-59 -77q-42 -40 -109 -63.5t-158 -23.5q-36 0 -67.5 8t-55 22.5t-36.5 35.5t-13 47q0 5 4.5 21l11 38.5t15.5 47t17.5 45t16.5 34t14 13.5
q8 0 14 -13.5t12 -23.5q5 -8 12 -21t20.5 -25t36.5 -21t61 -9q52 0 99 8.5t83 28.5t57.5 53t21.5 82q-5 47 -14 86t-18 69.5l-16 53t-7 35.5q0 9 12 36.5t27 57t28.5 52.5t15.5 23q5 0 15.5 -5t12.5 -22l22.5 -153t24 -149.5t26 -125t28.5 -79.5q17 -28 46 -41.5t60 -13.5
h37q19 0 30 -11.5t16.5 -28t7 -33.5t1.5 -29zM768 1061q0 -52 -38.5 -90.5t-98 -64.5t-129.5 -39t-133 -13q-12 0 -29 12.5t-33 29t-27.5 33.5t-11.5 25q0 9 8 9q5 0 16 -1t24 -1.5t26 -1.5t23 -1q21 0 32.5 8.5t17.5 25.5q5 14 7 28.5t2 22.5q0 34 -5 69t-11 68l-11 63
t-5 54q0 17 6 33t14 28t17 19.5t14 7.5q2 0 12 -14.5l21 -32t19.5 -32.5t8.5 -16q-8 -7 -14.5 -17t-6.5 -30q0 -29 3 -64t3 -61q0 -14 -2 -40.5t-6 -51.5q24 29 50 54t52.5 44t52 29.5t48.5 10.5q21 0 37 -10t26.5 -25t15.5 -33t5 -35zM694 1031q0 11 -16 13t-35 2t-42 -6.5
t-47 -17.5t-47.5 -26.5t-41.5 -34.5q59 4 102.5 15t71.5 22.5t41.5 21t13.5 11.5z" />
    <glyph glyph-name="uni0689.fina" unicode="&#x689;" horiz-adv-x="845" 
d="M474 -70q0 -36 -12.5 -68t-35 -56t-52.5 -37.5t-65 -13.5q-54 0 -84.5 38t-30.5 121q0 52 28 96q-35 1 -64 9.5t-51 23t-34 34.5t-12 46q0 5 4.5 21l11 38.5t15.5 47t17.5 45t16.5 34t14 13.5q8 0 14 -13.5t12 -23.5q5 -8 12 -21t20.5 -25t36.5 -21t61 -9q52 0 99 8.5
t83 28.5t57.5 53t21.5 82q-5 47 -14 86t-18 69.5l-16 53t-7 35.5q0 9 12 36.5t27 57t28.5 52.5t15.5 23q5 0 15.5 -5t12.5 -22l22.5 -153t24 -149.5t26 -125t28.5 -79.5q17 -28 46 -41.5t60 -13.5h37q19 0 30 -11.5t16.5 -28t7 -33.5t1.5 -29t-1.5 -29.5t-7 -34t-16.5 -28
t-30 -11.5h-37q-44 0 -78.5 20t-61.5 55t-47.5 82.5t-36.5 103.5q-10 -42 -37 -87t-59 -77q-31 -29 -74 -50q23 -23 35.5 -54.5t12.5 -62.5zM396 -93q0 8 -9 19.5t-22.5 22.5t-28.5 18.5t-27 7.5q-25 0 -37 -16.5t-12 -34.5q0 -19 20.5 -33.5t51.5 -14.5q9 0 20 3t21 7.5
t16.5 10t6.5 10.5z" />
    <glyph glyph-name="uni068A.fina" unicode="&#x68a;" horiz-adv-x="845" 
d="M912 103q0 -12 -1.5 -29.5t-7 -34t-16.5 -28t-30 -11.5h-37q-44 0 -78.5 20t-61.5 55t-47.5 82.5t-36.5 103.5q-10 -42 -37 -87t-59 -77q-42 -40 -109 -63.5t-158 -23.5q-36 0 -67.5 8t-55 22.5t-36.5 35.5t-13 47q0 5 4.5 21l11 38.5t15.5 47t17.5 45t16.5 34t14 13.5
q8 0 14 -13.5t12 -23.5q5 -8 12 -21t20.5 -25t36.5 -21t61 -9q52 0 99 8.5t83 28.5t57.5 53t21.5 82q-5 47 -14 86t-18 69.5l-16 53t-7 35.5q0 9 12 36.5t27 57t28.5 52.5t15.5 23q5 0 15.5 -5t12.5 -22l22.5 -153t24 -149.5t26 -125t28.5 -79.5q17 -28 46 -41.5t60 -13.5
h37q19 0 30 -11.5t16.5 -28t7 -33.5t1.5 -29zM566 -218q0 -4 -6.5 -16.5t-16.5 -29.5t-22.5 -36t-24 -34.5t-21.5 -26t-14 -10.5q-3 0 -25.5 14.5t-47.5 33t-45.5 36t-20.5 22.5q0 4 6.5 17t17 30l23 36t24 34.5t20.5 26t13 10.5q6 0 28.5 -15t47.5 -33.5t44.5 -36
t19.5 -22.5z" />
    <glyph glyph-name="uni068B.fina" unicode="&#x68b;" horiz-adv-x="845" 
d="M912 103q0 -12 -1.5 -29.5t-7 -34t-16.5 -28t-30 -11.5h-37q-44 0 -78.5 20t-61.5 55t-47.5 82.5t-36.5 103.5q-10 -42 -37 -87t-59 -77q-42 -40 -109 -63.5t-158 -23.5q-36 0 -67.5 8t-55 22.5t-36.5 35.5t-13 47q0 5 4.5 21l11 38.5t15.5 47t17.5 45t16.5 34t14 13.5
q8 0 14 -13.5t12 -23.5q5 -8 12 -21t20.5 -25t36.5 -21t61 -9q52 0 99 8.5t83 28.5t57.5 53t21.5 82q-5 47 -14 86t-18 69.5l-16 53t-7 35.5q0 9 12 36.5t27 57t28.5 52.5t15.5 23q5 0 15.5 -5t12.5 -22l22.5 -153t24 -149.5t26 -125t28.5 -79.5q17 -28 46 -41.5t60 -13.5
h37q19 0 30 -11.5t16.5 -28t7 -33.5t1.5 -29zM768 1061q0 -52 -38.5 -90.5t-98 -64.5t-129.5 -39t-133 -13q-12 0 -29 12.5t-33 29t-27.5 33.5t-11.5 25q0 9 8 9q5 0 16 -1t24 -1.5t26 -1.5t23 -1q21 0 32.5 8.5t17.5 25.5q5 14 7 28.5t2 22.5q0 34 -5 69t-11 68l-11 63
t-5 54q0 17 6 33t14 28t17 19.5t14 7.5q2 0 12 -14.5l21 -32t19.5 -32.5t8.5 -16q-8 -7 -14.5 -17t-6.5 -30q0 -29 3 -64t3 -61q0 -14 -2 -40.5t-6 -51.5q24 29 50 54t52.5 44t52 29.5t48.5 10.5q21 0 37 -10t26.5 -25t15.5 -33t5 -35zM694 1031q0 11 -16 13t-35 2t-42 -6.5
t-47 -17.5t-47.5 -26.5t-41.5 -34.5q59 4 102.5 15t71.5 22.5t41.5 21t13.5 11.5zM566 -218q0 -4 -6.5 -16.5t-16.5 -29.5t-22.5 -36t-24 -34.5t-21.5 -26t-14 -10.5q-3 0 -25.5 14.5t-47.5 33t-45.5 36t-20.5 22.5q0 4 6.5 17t17 30l23 36t24 34.5t20.5 26t13 10.5
q6 0 28.5 -15t47.5 -33.5t44.5 -36t19.5 -22.5z" />
    <glyph glyph-name="uni068C.fina" unicode="&#x68c;" horiz-adv-x="845" arabic-form="final" 
d="M912 103q0 -12 -1.5 -29.5t-7 -34t-16.5 -28t-30 -11.5h-37q-44 0 -78.5 20t-61.5 55t-47.5 82.5t-36.5 103.5q-10 -42 -37 -87t-59 -77q-42 -40 -109 -63.5t-158 -23.5q-36 0 -67.5 8t-55 22.5t-36.5 35.5t-13 47q0 5 4.5 21l11 38.5t15.5 47t17.5 45t16.5 34t14 13.5
q8 0 14 -13.5t12 -23.5q5 -8 12 -21t20.5 -25t36.5 -21t61 -9q52 0 99 8.5t83 28.5t57.5 53t21.5 82q-5 47 -14 86t-18 69.5l-16 53t-7 35.5q0 9 12 36.5t27 57t28.5 52.5t15.5 23q5 0 15.5 -5t12.5 -22l22.5 -153t24 -149.5t26 -125t28.5 -79.5q17 -28 46 -41.5t60 -13.5
h37q19 0 30 -11.5t16.5 -28t7 -33.5t1.5 -29zM622 1154q6 0 27 -14t44 -31.5t41 -34t18 -20.5t-6 -16t-15.5 -28t-21 -33.5t-22 -32t-19 -24t-11.5 -9.5q-4 0 -23.5 14l-42.5 31l-60 46q-6 6 -13 6q-3 0 -8 -9l-41 -58q-16 -22 -31 -39.5t-20 -17.5q-2 0 -12.5 6.5t-25.5 17
l-31 22.5l-30 23t-23 19.5t-9 11.5q0 4 6.5 16t16.5 28.5l21.5 34.5t22.5 32.5l19 24.5t10 10q7 0 27 -14.5l42 -31.5q26 -20 55 -45q6 -7 11 -7q3 0 5.5 2t7.5 9l42 55l30.5 38.5t18.5 17.5z" />
    <glyph glyph-name="uni068D.fina" unicode="&#x68d;" horiz-adv-x="845" arabic-form="final" 
d="M912 103q0 -12 -1.5 -29.5t-7 -34t-16.5 -28t-30 -11.5h-37q-44 0 -78.5 20t-61.5 55t-47.5 82.5t-36.5 103.5q-10 -42 -37 -87t-59 -77q-42 -40 -109 -63.5t-158 -23.5q-36 0 -67.5 8t-55 22.5t-36.5 35.5t-13 47q0 5 4.5 21l11 38.5t15.5 47t17.5 45t16.5 34t14 13.5
q8 0 14 -13.5t12 -23.5q5 -8 12 -21t20.5 -25t36.5 -21t61 -9q52 0 99 8.5t83 28.5t57.5 53t21.5 82q-5 47 -14 86t-18 69.5l-16 53t-7 35.5q0 9 12 36.5t27 57t28.5 52.5t15.5 23q5 0 15.5 -5t12.5 -22l22.5 -153t24 -149.5t26 -125t28.5 -79.5q17 -28 46 -41.5t60 -13.5
h37q19 0 30 -11.5t16.5 -28t7 -33.5t1.5 -29zM585 -101q6 0 27 -14t44 -31.5t41 -34t18 -20.5t-6 -16t-15.5 -28t-21 -33.5t-22 -32t-19 -24t-11.5 -9.5q-4 0 -23.5 14l-42.5 31l-60 46q-6 6 -13 6q-3 0 -8 -9l-41 -58q-16 -22 -31 -39.5t-20 -17.5q-2 0 -12.5 6.5t-25.5 17
l-31 22.5l-30 23t-23 19.5t-9 11.5q0 4 6.5 16t16.5 28.5l21.5 34.5t22.5 32.5l19 24.5t10 10q7 0 27 -14.5l42 -31.5q26 -20 55 -45q6 -7 11 -7q3 0 5.5 2t7.5 9l42 55l30.5 38.5t18.5 17.5z" />
    <glyph glyph-name="uni068E.fina" unicode="&#x68e;" horiz-adv-x="845" arabic-form="final" 
d="M912 103q0 -12 -1.5 -29.5t-7 -34t-16.5 -28t-30 -11.5h-37q-44 0 -78.5 20t-61.5 55t-47.5 82.5t-36.5 103.5q-10 -42 -37 -87t-59 -77q-42 -40 -109 -63.5t-158 -23.5q-36 0 -67.5 8t-55 22.5t-36.5 35.5t-13 47q0 5 4.5 21l11 38.5t15.5 47t17.5 45t16.5 34t14 13.5
q8 0 14 -13.5t12 -23.5q5 -8 12 -21t20.5 -25t36.5 -21t61 -9q52 0 99 8.5t83 28.5t57.5 53t21.5 82q-5 47 -14 86t-18 69.5l-16 53t-7 35.5q0 9 12 36.5t27 57t28.5 52.5t15.5 23q5 0 15.5 -5t12.5 -22l22.5 -153t24 -149.5t26 -125t28.5 -79.5q17 -28 46 -41.5t60 -13.5
h37q19 0 30 -11.5t16.5 -28t7 -33.5t1.5 -29zM403 1237q0 6 13 29.5t30 49.5t33.5 46.5t22.5 20.5q2 0 13 -6.5t25.5 -16.5l31 -22.5l30.5 -23.5t23 -20t9 -12q0 -4 -6.5 -16l-16 -28.5t-21.5 -34.5t-23 -32.5t-19.5 -24.5t-11.5 -10q-6 0 -27.5 14t-45 32t-42 34t-18.5 21z
M446 874q-6 0 -27 14t-44 32t-41 34t-18 20q0 6 13 29t29.5 48.5t32 46t20.5 20.5q3 0 23 -14.5l43 -31.5l60 -46q7 -5 13 -5q3 0 8 8l41 57q16 22 31 40t20 18q2 0 12.5 -6.5t25.5 -17l31 -22.5l30 -23t23 -19.5t9 -11.5q0 -4 -6.5 -16t-16.5 -28.5l-21.5 -34.5
t-22.5 -32.5l-19 -24.5t-10 -10q-8 0 -27.5 14l-41.5 31q-26 20 -55 46q-6 7 -11 7q-6 0 -13 -10l-42 -56l-31 -38.5t-18 -17.5z" />
    <glyph glyph-name="uni068F.fina" unicode="&#x68f;" horiz-adv-x="845" 
d="M912 103q0 -12 -1.5 -29.5t-7 -34t-16.5 -28t-30 -11.5h-37q-44 0 -78.5 20t-61.5 55t-47.5 82.5t-36.5 103.5q-10 -42 -37 -87t-59 -77q-42 -40 -109 -63.5t-158 -23.5q-36 0 -67.5 8t-55 22.5t-36.5 35.5t-13 47q0 5 4.5 21l11 38.5t15.5 47t17.5 45t16.5 34t14 13.5
q8 0 14 -13.5t12 -23.5q5 -8 12 -21t20.5 -25t36.5 -21t61 -9q52 0 99 8.5t83 28.5t57.5 53t21.5 82q-5 47 -14 86t-18 69.5l-16 53t-7 35.5q0 9 12 36.5t27 57t28.5 52.5t15.5 23q5 0 15.5 -5t12.5 -22l22.5 -153t24 -149.5t26 -125t28.5 -79.5q17 -28 46 -41.5t60 -13.5
h37q19 0 30 -11.5t16.5 -28t7 -33.5t1.5 -29zM622 1416q6 0 27 -14t44 -32t41 -34t18 -20q0 -6 -13 -29t-29.5 -48.5t-32 -46t-20.5 -20.5q-4 0 -23.5 14.5l-42.5 31.5l-60 46q-7 5 -13 5q-3 0 -8 -8l-41 -58q-16 -22 -31 -39.5t-20 -17.5q-2 0 -12.5 6.5t-25.5 17l-31 22.5
l-30 23t-23 19.5t-9 11.5q0 4 6.5 16t16.5 28.5l21.5 34.5t22.5 32.5l19 24.5t10 10q7 0 27 -14.5l42 -31.5q26 -20 55 -45q6 -7 11 -7t13 10l42 56l30.5 38.5t18.5 17.5zM665 1053q0 -6 -13 -29.5t-30 -49.5t-33.5 -46.5t-22.5 -20.5q-2 0 -13 6.5t-25.5 16.5l-31 22.5
l-30.5 23.5t-23 20t-9 12q0 4 6.5 16l16 28.5t21.5 34.5t23 32.5t19.5 24.5t11.5 10q6 0 27.5 -14t45 -32t42 -34.5t18.5 -20.5z" />
    <glyph glyph-name="uni0690.fina" unicode="&#x690;" horiz-adv-x="845" 
d="M912 103q0 -12 -1.5 -29.5t-7 -34t-16.5 -28t-30 -11.5h-37q-44 0 -78.5 20t-61.5 55t-47.5 82.5t-36.5 103.5q-10 -42 -37 -87t-59 -77q-42 -40 -109 -63.5t-158 -23.5q-36 0 -67.5 8t-55 22.5t-36.5 35.5t-13 47q0 5 4.5 21l11 38.5t15.5 47t17.5 45t16.5 34t14 13.5
q8 0 14 -13.5t12 -23.5q5 -8 12 -21t20.5 -25t36.5 -21t61 -9q52 0 99 8.5t83 28.5t57.5 53t21.5 82q-5 47 -14 86t-18 69.5l-16 53t-7 35.5q0 9 12 36.5t27 57t28.5 52.5t15.5 23q5 0 15.5 -5t12.5 -22l22.5 -153t24 -149.5t26 -125t28.5 -79.5q17 -28 46 -41.5t60 -13.5
h37q19 0 30 -11.5t16.5 -28t7 -33.5t1.5 -29zM631 1443q6 0 27 -14t44 -31.5t41 -33.5t18 -20q0 -6 -12.5 -29.5t-29 -49t-32 -45.5t-21.5 -20q-3 0 -23 14l-43 31l-59 46q-8 6 -13 6q-2 0 -9 -9l-41 -58q-16 -22 -30.5 -39.5t-19.5 -17.5q-2 0 -12.5 6.5t-25.5 17t-31 23
l-30 23.5t-23 19t-9 11q0 4 6.5 16l16 28.5t21.5 34.5l22.5 33t18.5 25t11 10q7 0 27.5 -14.5t41.5 -31.5q25 -20 54 -46q7 -6 12 -6q4 0 13 10q24 30 42 55l30 38.5t18 17.5zM658 1192q6 0 27 -14t44 -32t41 -34t18 -20q0 -6 -13 -29t-29.5 -48.5t-32 -46t-20.5 -20.5
q-3 0 -23 14.5l-43 31.5l-59 46q-8 5 -14 5q-2 0 -3.5 -2.5t-4.5 -5.5l-41 -58q-16 -22 -30.5 -39.5t-19.5 -17.5q-4 0 -25 14t-44.5 31.5t-42.5 33.5t-19 20q0 6 13.5 29.5t30.5 50t32.5 47t18.5 20.5q7 0 27 -14.5l42 -31.5q26 -20 55 -45q7 -7 11 -7q5 0 14 10l41 56
l30.5 38.5t18.5 17.5z" />
    <glyph glyph-name="uni06EE.fina" unicode="&#x6ee;" horiz-adv-x="845" 
d="M912 103q0 -12 -1.5 -29.5t-7 -34t-16.5 -28t-30 -11.5h-37q-44 0 -78.5 20t-61.5 55t-47.5 82.5t-36.5 103.5q-10 -42 -37 -87t-59 -77q-42 -40 -109 -63.5t-158 -23.5q-36 0 -67.5 8t-55 22.5t-36.5 35.5t-13 47q0 5 4.5 21l11 38.5t15.5 47t17.5 45t16.5 34t14 13.5
q8 0 14 -13.5t12 -23.5q5 -8 12 -21t20.5 -25t36.5 -21t61 -9q52 0 99 8.5t83 28.5t57.5 53t21.5 82q-5 47 -14 86t-18 69.5l-16 53t-7 35.5q0 9 12 36.5t27 57t28.5 52.5t15.5 23q5 0 15.5 -5t12.5 -22l22.5 -153t24 -149.5t26 -125t28.5 -79.5q17 -28 46 -41.5t60 -13.5
h37q19 0 30 -11.5t16.5 -28t7 -33.5t1.5 -29zM790 912q0 -5 -1 -8t-9 -3h-52q-5 0 -19.5 11l-34 27l-41.5 35l-41.5 35t-34.5 27t-19 11t-19 -11t-34.5 -27l-41 -35l-41 -35l-33.5 -27t-17 -11h-58q-6 0 -8 3.5t-2 7.5q0 2 9.5 15l25 33.5l35 46l40 51l40 49l34.5 40.5
l17.5 20t15.5 9h76q8 0 14.5 -9t16.5 -18q23 -24 54 -62l59.5 -75t48.5 -66t20 -34z" />
    <glyph glyph-name="uni0631.fina" unicode="&#x631;" horiz-adv-x="647" arabic-form="final" 
d="M715 103q0 -12 -1.5 -29.5t-7 -34t-16.5 -28t-30 -11.5h-37q-8 0 -24 2t-27 10q-5 -42 -12.5 -91.5t-22 -100t-37 -99t-56.5 -90.5q-19 -23 -47.5 -45t-64 -39.5t-75 -28.5t-79.5 -11q-19 0 -47 6.5t-58.5 16.5t-61.5 21.5t-55.5 22.5t-40 19.5t-15.5 11.5t1 9.5t2.5 13
t4 11.5t4.5 5q3 0 22 -3t61 -3q41 0 90 10.5t99.5 31t99.5 50.5t89 70q66 66 93 108.5t27 54.5q0 4 -8.5 16.5t-21 28.5l-27.5 34.5l-27.5 34.5l-21 27.5t-8.5 15.5q0 1 5.5 13.5l13.5 30l17.5 37.5l18 38.5l14.5 31.5t8 17h26q9 -11 22 -25.5t30 -27.5t39.5 -21.5
t49.5 -8.5h37q19 0 30 -11.5t16.5 -28t7 -33.5t1.5 -29z" />
    <glyph glyph-name="uni0632.fina" unicode="&#x632;" horiz-adv-x="647" arabic-form="final" 
d="M715 103q0 -12 -1.5 -29.5t-7 -34t-16.5 -28t-30 -11.5h-37q-8 0 -24 2t-27 10q-5 -42 -12.5 -91.5t-22 -100t-37 -99t-56.5 -90.5q-19 -23 -47.5 -45t-64 -39.5t-75 -28.5t-79.5 -11q-19 0 -47 6.5t-58.5 16.5t-61.5 21.5t-55.5 22.5t-40 19.5t-15.5 11.5t1 9.5t2.5 13
t4 11.5t4.5 5q3 0 22 -3t61 -3q41 0 90 10.5t99.5 31t99.5 50.5t89 70q66 66 93 108.5t27 54.5q0 4 -8.5 16.5t-21 28.5l-27.5 34.5l-27.5 34.5l-21 27.5t-8.5 15.5q0 1 5.5 13.5l13.5 30l17.5 37.5l18 38.5l14.5 31.5t8 17h26q9 -11 22 -25.5t30 -27.5t39.5 -21.5
t49.5 -8.5h37q19 0 30 -11.5t16.5 -28t7 -33.5t1.5 -29zM564 543q0 -4 -6.5 -16.5t-16.5 -29.5t-22.5 -36t-24 -34.5t-21.5 -26t-14 -10.5q-3 0 -25.5 14.5t-47.5 33t-45.5 36t-20.5 22.5q0 4 6.5 17t17 30l23 36t24 34.5t20.5 26t13 10.5q6 0 28.5 -15t47.5 -33.5t44.5 -36
t19.5 -22.5z" />
    <glyph glyph-name="uni0691.fina" unicode="&#x691;" horiz-adv-x="647" arabic-form="final" 
d="M715 103q0 -12 -1.5 -29.5t-7 -34t-16.5 -28t-30 -11.5h-37q-8 0 -24 2t-27 10q-5 -42 -12.5 -91.5t-22 -100t-37 -99t-56.5 -90.5q-19 -23 -47.5 -45t-64 -39.5t-75 -28.5t-79.5 -11q-19 0 -47 6.5t-58.5 16.5t-61.5 21.5t-55.5 22.5t-40 19.5t-15.5 11.5t1 9.5t2.5 13
t4 11.5t4.5 5q3 0 22 -3t61 -3q41 0 90 10.5t99.5 31t99.5 50.5t89 70q66 66 93 108.5t27 54.5q0 4 -8.5 16.5t-21 28.5l-27.5 34.5l-27.5 34.5l-21 27.5t-8.5 15.5q0 1 5.5 13.5l13.5 30l17.5 37.5l18 38.5l14.5 31.5t8 17h26q9 -11 22 -25.5t30 -27.5t39.5 -21.5
t49.5 -8.5h37q19 0 30 -11.5t16.5 -28t7 -33.5t1.5 -29zM732 578q0 -52 -38.5 -90.5t-98 -64.5t-129.5 -39t-133 -13q-12 0 -29 12.5t-33 29t-27.5 33.5t-11.5 25q0 9 8 9q5 0 16 -1t24 -1.5t26 -1.5t23 -1q21 0 32.5 8.5t17.5 25.5q5 14 7 28.5t2 22.5q0 34 -5 69t-11 68
l-11 63t-5 54q0 17 6 33t14 28t17 19.5t14 7.5q2 0 12 -14.5l21 -32t19.5 -32.5t8.5 -16q-8 -7 -14.5 -17t-6.5 -30q0 -29 3 -64t3 -61q0 -14 -2 -40.5t-6 -51.5q24 29 50 54t52.5 44t52 29.5t48.5 10.5q21 0 37 -10t26.5 -25t15.5 -33t5 -35zM658 548q0 11 -16 13t-35 2
t-42 -6.5t-47 -17.5t-47.5 -26.5t-41.5 -34.5q59 4 102.5 15t71.5 22.5t41.5 21t13.5 11.5z" />
    <glyph glyph-name="uni0692.fina" unicode="&#x692;" horiz-adv-x="647" 
d="M715 103q0 -12 -1.5 -29.5t-7 -34t-16.5 -28t-30 -11.5h-37q-8 0 -24 2t-27 10q-5 -42 -12.5 -91.5t-22 -100t-37 -99t-56.5 -90.5q-19 -23 -47.5 -45t-64 -39.5t-75 -28.5t-79.5 -11q-19 0 -47 6.5t-58.5 16.5t-61.5 21.5t-55.5 22.5t-40 19.5t-15.5 11.5t1 9.5t2.5 13
t4 11.5t4.5 5q3 0 22 -3t61 -3q41 0 90 10.5t99.5 31t99.5 50.5t89 70q66 66 93 108.5t27 54.5q0 4 -8.5 16.5t-21 28.5l-27.5 34.5l-27.5 34.5l-21 27.5t-8.5 15.5q0 1 5.5 13.5l13.5 30l17.5 37.5l18 38.5l14.5 31.5t8 17h26q9 -11 22 -25.5t30 -27.5t39.5 -21.5
t49.5 -8.5h37q19 0 30 -11.5t16.5 -28t7 -33.5t1.5 -29zM228 680q0 18 17 18h52q3 0 14.5 -11l27.5 -27l34.5 -35.5l34.5 -35.5l28 -27t16 -11t16 11l28 27l34.5 35.5l34.5 35.5l27.5 27t14.5 11h52q17 0 17 -18q0 -1 -9.5 -17l-24 -40t-33.5 -52.5l-37.5 -56l-35.5 -50.5
t-29 -35l-14 -14t-13 -6h-56q-6 0 -12.5 6l-14.5 14q-12 12 -29 35l-35.5 50.5l-37.5 56t-33.5 52.5l-24 39.5t-9.5 17.5z" />
    <glyph glyph-name="uni0693.fina" unicode="&#x693;" horiz-adv-x="647" 
d="M604 -439q0 -36 -12.5 -68t-35 -56t-52.5 -37.5t-65 -13.5q-54 0 -84 37.5t-31 118.5q-34 -16 -71 -25.5t-75 -9.5q-19 0 -47 6.5t-58.5 16.5t-61.5 21.5t-55.5 22.5t-40 19.5t-15.5 11.5t1 9.5t2.5 13t4 11.5t4.5 5q3 0 22 -3t61 -3q41 0 90 10.5t99.5 31t99.5 50.5
t89 70q66 66 93 108.5t27 54.5q0 4 -8.5 16.5t-21 28.5l-27.5 34.5l-27.5 34.5l-21 27.5t-8.5 15.5q0 1 5.5 13.5l13.5 30l17.5 37.5l18 38.5l14.5 31.5t8 17h26q9 -11 22 -25.5t30 -27.5t39.5 -21.5t49.5 -8.5h37q19 0 30 -11.5t16.5 -28t7 -33.5t1.5 -29t-1.5 -29.5
t-7 -34t-16.5 -28t-30 -11.5h-37q-8 0 -24 2t-27 10q-4 -33 -9.5 -70t-14 -75.5t-21.5 -78t-31 -76.5q24 -4 44 -19t34 -36.5t22 -46.5t8 -49zM526 -462q0 8 -9 19.5t-22.5 22.5t-28.5 18.5t-27 7.5q-15 0 -27 -7l-8 -7q-8 -8 -11 -17.5t-3 -19.5q0 -19 20.5 -33.5
t51.5 -14.5q9 0 20 3t21 7.5t16.5 10t6.5 10.5z" />
    <glyph glyph-name="uni0694.fina" unicode="&#x694;" horiz-adv-x="647" 
d="M715 103q0 -12 -1.5 -29.5t-7 -34t-16.5 -28t-30 -11.5h-37q-8 0 -24 2t-27 10q-5 -42 -12.5 -91.5t-22 -100t-37 -99t-56.5 -90.5q-19 -23 -47.5 -45t-64 -39.5t-75 -28.5t-79.5 -11q-19 0 -47 6.5t-58.5 16.5t-61.5 21.5t-55.5 22.5t-40 19.5t-15.5 11.5t1 9.5t2.5 13
t4 11.5t4.5 5q3 0 22 -3t61 -3q41 0 90 10.5t99.5 31t99.5 50.5t89 70q66 66 93 108.5t27 54.5q0 4 -8.5 16.5t-21 28.5l-27.5 34.5l-27.5 34.5l-21 27.5t-8.5 15.5q0 1 5.5 13.5l13.5 30l17.5 37.5l18 38.5l14.5 31.5t8 17h26q9 -11 22 -25.5t30 -27.5t39.5 -21.5
t49.5 -8.5h37q19 0 30 -11.5t16.5 -28t7 -33.5t1.5 -29zM575 -621q0 -4 -6.5 -16.5t-16.5 -29.5t-22.5 -36t-24 -34.5t-21.5 -26t-14 -10.5q-3 0 -25.5 14.5t-47.5 33t-45.5 36t-20.5 22.5q0 4 6.5 17t17 30l23 36t24 34.5t20.5 26t13 10.5q6 0 28.5 -15t47.5 -33.5
t44.5 -36t19.5 -22.5z" />
    <glyph glyph-name="uni0695.fina" unicode="&#x695;" horiz-adv-x="647" 
d="M715 103q0 -12 -1.5 -29.5t-7 -34t-16.5 -28t-30 -11.5h-37q-8 0 -24 2t-27 10q-5 -42 -12.5 -91.5t-22 -100t-37 -99t-56.5 -90.5q-19 -23 -47.5 -45t-64 -39.5t-75 -28.5t-79.5 -11q-19 0 -47 6.5t-58.5 16.5t-61.5 21.5t-55.5 22.5t-40 19.5t-15.5 11.5t1 9.5t2.5 13
t4 11.5t4.5 5q3 0 22 -3t61 -3q41 0 90 10.5t99.5 31t99.5 50.5t89 70q66 66 93 108.5t27 54.5q0 4 -8.5 16.5t-21 28.5l-27.5 34.5l-27.5 34.5l-21 27.5t-8.5 15.5q0 1 5.5 13.5l13.5 30l17.5 37.5l18 38.5l14.5 31.5t8 17h26q9 -11 22 -25.5t30 -27.5t39.5 -21.5
t49.5 -8.5h37q19 0 30 -11.5t16.5 -28t7 -33.5t1.5 -29zM227 -570q0 18 17 18h52q3 0 14.5 -11l27.5 -27l34.5 -35.5l34.5 -35.5l28 -27t16 -11t16 11l28 27l34.5 35.5l34.5 35.5l27.5 27t14.5 11h52q17 0 17 -18q0 -1 -9.5 -17l-24 -40t-33.5 -52.5l-37.5 -56l-35.5 -50.5
t-29 -35l-14 -14t-13 -6h-56q-6 0 -12.5 6l-14.5 14q-12 12 -29 35l-35.5 50.5l-37.5 56t-33.5 52.5l-24 39.5t-9.5 17.5z" />
    <glyph glyph-name="uni0696.fina" unicode="&#x696;" horiz-adv-x="647" 
d="M715 103q0 -12 -1.5 -29.5t-7 -34t-16.5 -28t-30 -11.5h-37q-8 0 -24 2t-27 10q-5 -42 -12.5 -91.5t-22 -100t-37 -99t-56.5 -90.5q-19 -23 -47.5 -45t-64 -39.5t-75 -28.5t-79.5 -11q-19 0 -47 6.5t-58.5 16.5t-61.5 21.5t-55.5 22.5t-40 19.5t-15.5 11.5t1 9.5t2.5 13
t4 11.5t4.5 5q3 0 22 -3t61 -3q41 0 90 10.5t99.5 31t99.5 50.5t89 70q66 66 93 108.5t27 54.5q0 4 -8.5 16.5t-21 28.5l-27.5 34.5l-27.5 34.5l-21 27.5t-8.5 15.5q0 1 5.5 13.5l13.5 30l17.5 37.5l18 38.5l14.5 31.5t8 17h26q9 -11 22 -25.5t30 -27.5t39.5 -21.5
t49.5 -8.5h37q19 0 30 -11.5t16.5 -28t7 -33.5t1.5 -29zM578 -621q0 -4 -6.5 -16.5t-16.5 -29.5t-22.5 -36t-24 -34.5t-21.5 -26t-14 -10.5q-3 0 -25.5 14.5t-47.5 33t-45.5 36t-20.5 22.5q0 4 6.5 17t17 30l23 36t24 34.5t20.5 26t13 10.5q6 0 28.5 -15t47.5 -33.5
t44.5 -36t19.5 -22.5zM294 14q0 -4 -6.5 -16.5t-16.5 -29.5t-22.5 -36t-24 -34.5t-21.5 -26t-14 -10.5q-3 0 -25.5 14.5t-47.5 33t-45.5 36t-20.5 22.5q0 4 6.5 17t17 30l23 36t24 34.5t20.5 26t13 10.5q6 0 28.5 -15t47.5 -33.5t44.5 -36t19.5 -22.5z" />
    <glyph glyph-name="uni0697.fina" unicode="&#x697;" horiz-adv-x="647" 
d="M715 103q0 -12 -1.5 -29.5t-7 -34t-16.5 -28t-30 -11.5h-37q-8 0 -24 2t-27 10q-5 -42 -12.5 -91.5t-22 -100t-37 -99t-56.5 -90.5q-19 -23 -47.5 -45t-64 -39.5t-75 -28.5t-79.5 -11q-19 0 -47 6.5t-58.5 16.5t-61.5 21.5t-55.5 22.5t-40 19.5t-15.5 11.5t1 9.5t2.5 13
t4 11.5t4.5 5q3 0 22 -3t61 -3q41 0 90 10.5t99.5 31t99.5 50.5t89 70q66 66 93 108.5t27 54.5q0 4 -8.5 16.5t-21 28.5l-27.5 34.5l-27.5 34.5l-21 27.5t-8.5 15.5q0 1 5.5 13.5l13.5 30l17.5 37.5l18 38.5l14.5 31.5t8 17h26q9 -11 22 -25.5t30 -27.5t39.5 -21.5
t49.5 -8.5h37q19 0 30 -11.5t16.5 -28t7 -33.5t1.5 -29zM558 624q6 0 27 -14t44 -31.5t41 -34t18 -20.5t-6 -16t-15.5 -28t-21 -33.5t-22 -32t-19 -24t-11.5 -9.5q-4 0 -23.5 14l-42.5 31l-60 46q-6 6 -13 6q-3 0 -8 -9l-41 -58q-16 -22 -31 -39.5t-20 -17.5q-2 0 -12.5 6.5
t-25.5 17l-31 22.5l-30 23t-23 19.5t-9 11.5q0 4 6.5 16t16.5 28.5l21.5 34.5t22.5 32.5l19 24.5t10 10q7 0 27 -14.5l42 -31.5q26 -20 55 -45q6 -7 11 -7q3 0 5.5 2t7.5 9l42 55l30.5 38.5t18.5 17.5z" />
    <glyph glyph-name="uni0698.fina" unicode="&#x698;" horiz-adv-x="647" arabic-form="final" 
d="M715 103q0 -12 -1.5 -29.5t-7 -34t-16.5 -28t-30 -11.5h-37q-8 0 -24 2t-27 10q-5 -42 -12.5 -91.5t-22 -100t-37 -99t-56.5 -90.5q-19 -23 -47.5 -45t-64 -39.5t-75 -28.5t-79.5 -11q-19 0 -47 6.5t-58.5 16.5t-61.5 21.5t-55.5 22.5t-40 19.5t-15.5 11.5t1 9.5t2.5 13
t4 11.5t4.5 5q3 0 22 -3t61 -3q41 0 90 10.5t99.5 31t99.5 50.5t89 70q66 66 93 108.5t27 54.5q0 4 -8.5 16.5t-21 28.5l-27.5 34.5l-27.5 34.5l-21 27.5t-8.5 15.5q0 1 5.5 13.5l13.5 30l17.5 37.5l18 38.5l14.5 31.5t8 17h26q9 -11 22 -25.5t30 -27.5t39.5 -21.5
t49.5 -8.5h37q19 0 30 -11.5t16.5 -28t7 -33.5t1.5 -29zM307 720q0 6 13 29.5t30 49.5t33.5 46.5t22.5 20.5q2 0 13 -6.5t25.5 -16.5l31 -22.5l30.5 -23.5t23 -20t9 -12q0 -4 -6.5 -16l-16 -28.5t-21.5 -34.5t-23 -32.5t-19.5 -24.5t-11.5 -10q-6 0 -27.5 14t-45 32t-42 34
t-18.5 21zM350 357q-6 0 -27 14t-44 32t-41 34t-18 20q0 6 13 29t29.5 48.5t32 46t20.5 20.5q3 0 23 -14.5l43 -31.5l60 -46q7 -5 13 -5q3 0 8 8l41 57q16 22 31 40t20 18q2 0 12.5 -6.5t25.5 -17l31 -22.5l30 -23t23 -19.5t9 -11.5q0 -4 -6.5 -16t-16.5 -28.5l-21.5 -34.5
t-22.5 -32.5l-19 -24.5t-10 -10q-8 0 -27.5 14l-41.5 31q-26 20 -55 46q-6 7 -11 7q-6 0 -13 -10l-42 -56l-31 -38.5t-18 -17.5z" />
    <glyph glyph-name="uni0699.fina" unicode="&#x699;" horiz-adv-x="647" 
d="M715 103q0 -12 -1.5 -29.5t-7 -34t-16.5 -28t-30 -11.5h-37q-8 0 -24 2t-27 10q-5 -42 -12.5 -91.5t-22 -100t-37 -99t-56.5 -90.5q-19 -23 -47.5 -45t-64 -39.5t-75 -28.5t-79.5 -11q-19 0 -47 6.5t-58.5 16.5t-61.5 21.5t-55.5 22.5t-40 19.5t-15.5 11.5t1 9.5t2.5 13
t4 11.5t4.5 5q3 0 22 -3t61 -3q41 0 90 10.5t99.5 31t99.5 50.5t89 70q66 66 93 108.5t27 54.5q0 4 -8.5 16.5t-21 28.5l-27.5 34.5l-27.5 34.5l-21 27.5t-8.5 15.5q0 1 5.5 13.5l13.5 30l17.5 37.5l18 38.5l14.5 31.5t8 17h26q9 -11 22 -25.5t30 -27.5t39.5 -21.5
t49.5 -8.5h37q19 0 30 -11.5t16.5 -28t7 -33.5t1.5 -29zM536 878q6 0 27 -14t44 -31.5t41 -33.5t18 -20q0 -6 -12.5 -29.5t-29 -49t-32 -45.5t-21.5 -20q-3 0 -23 14l-43 31l-59 46q-8 6 -13 6q-2 0 -9 -9l-41 -58q-16 -22 -30.5 -39.5t-19.5 -17.5q-2 0 -12.5 6.5t-25.5 17
t-31 23l-30 23.5t-23 19t-9 11q0 4 6.5 16l16 28.5t21.5 34.5l22.5 33t18.5 25t11 10q7 0 27.5 -14.5t41.5 -31.5q25 -20 54 -46q7 -6 12 -6q4 0 13 10q24 30 42 55l30 38.5t18 17.5zM563 627q6 0 27 -14t44 -32t41 -34t18 -20q0 -6 -13 -29t-29.5 -48.5t-32 -46
t-20.5 -20.5q-3 0 -23 14.5l-43 31.5l-59 46q-8 5 -14 5q-2 0 -3.5 -2.5t-4.5 -5.5l-41 -58q-16 -22 -30.5 -39.5t-19.5 -17.5q-4 0 -25 14t-44.5 31.5t-42.5 33.5t-19 20q0 6 13.5 29.5t30.5 50t32.5 47t18.5 20.5q7 0 27 -14.5l42 -31.5q26 -20 55 -45q7 -7 11 -7
q5 0 14 10l41 56l30.5 38.5t18.5 17.5z" />
    <glyph glyph-name="uni06EF.fina" unicode="&#x6ef;" horiz-adv-x="647" 
d="M715 103q0 -12 -1.5 -29.5t-7 -34t-16.5 -28t-30 -11.5h-37q-8 0 -24 2t-27 10q-5 -42 -12.5 -91.5t-22 -100t-37 -99t-56.5 -90.5q-19 -23 -47.5 -45t-64 -39.5t-75 -28.5t-79.5 -11q-19 0 -47 6.5t-58.5 16.5t-61.5 21.5t-55.5 22.5t-40 19.5t-15.5 11.5t1 9.5t2.5 13
t4 11.5t4.5 5q3 0 22 -3t61 -3q41 0 90 10.5t99.5 31t99.5 50.5t89 70q66 66 93 108.5t27 54.5q0 4 -8.5 16.5t-21 28.5l-27.5 34.5l-27.5 34.5l-21 27.5t-8.5 15.5q0 1 5.5 13.5l13.5 30l17.5 37.5l18 38.5l14.5 31.5t8 17h26q9 -11 22 -25.5t30 -27.5t39.5 -21.5
t49.5 -8.5h37q19 0 30 -11.5t16.5 -28t7 -33.5t1.5 -29zM692 358q0 -5 -1 -8t-9 -3h-52q-5 0 -19.5 11l-34 27l-41.5 35l-41.5 35t-34.5 27t-19 11t-19 -11t-34.5 -27l-41 -35l-41 -35l-33.5 -27t-17 -11h-58q-6 0 -8 3.5t-2 7.5q0 2 9.5 15l25 33.5l35 46l40 51l40 49
l34.5 40.5l17.5 20t15.5 9h76q8 0 14.5 -9t16.5 -18q23 -24 54 -62l59.5 -75t48.5 -66t20 -34z" />
    <glyph glyph-name="uni06CD.fina" unicode="&#x6cd;" horiz-adv-x="1103" 
d="M969 0q-15 0 -39.5 -0.5t-51.5 -1.5t-51.5 -3.5t-38.5 -6.5q-34 -10 -54.5 -24t-20.5 -30q0 -8 23 -16.5t77 -14.5q47 -5 82 -13t58 -23t34.5 -39t11.5 -60q0 -31 -19.5 -68t-55.5 -74t-87 -71.5t-113 -61.5t-134.5 -43t-150.5 -16q-110 0 -184.5 28.5t-120.5 76.5
t-65.5 110.5t-19.5 130.5q0 37 7.5 75.5t18.5 74.5t25 68t28 56q-34 -21 -73.5 -31.5t-68.5 -10.5q-6 0 -13 6t-8 18q-1 14 3.5 20.5t10.5 8.5q59 12 117.5 41.5t107.5 77.5q3 2 6 2h5q3 0 7.5 -3.5t9.5 -8t8.5 -9t3.5 -6.5q0 -3 -14 -25t-30.5 -59.5t-30 -88.5t-13.5 -112
q0 -55 20 -99.5t61.5 -76t105 -48.5t149.5 -17q73 0 145 7.5t129 21t92.5 31.5t35.5 39q0 22 -36.5 26.5t-102.5 6.5q-47 1 -78.5 10t-50 24.5t-26 37t-7.5 48.5q0 32 13 64t35 63t50.5 59.5t60.5 52t65 41.5t64 27q10 3 28.5 5.5t38.5 4t39.5 2.5t30.5 1h97q19 0 30 -11.5
t16.5 -28t7 -33.5t1.5 -29t-1.5 -29.5t-7 -34t-16.5 -28t-30 -11.5h-146z" />
    <glyph glyph-name="uni06D2.fina" unicode="&#x6d2;" horiz-adv-x="1130" arabic-form="final" 
d="M1435 -608q0 -2 -18 -12t-47 -24.5l-66 -32t-75.5 -33.5t-74.5 -29t-64 -20q-30 -8 -81 -13t-109 -8.5t-115 -5t-100 -1.5q-38 0 -94 1.5t-119.5 4.5t-129 8t-121 12t-95.5 16t-53 21q-9 8 -15.5 28.5t-10.5 43.5t-6 44.5t-2 32.5q0 24 17.5 58.5t47.5 74.5t70 82t85 80
q53 45 114 71.5t128 44.5q65 17 105 31t67.5 32.5t50 45.5t53.5 70q68 94 137 142t135 48h79q19 0 30 -11.5t16.5 -28t7 -33.5t1.5 -29t-1.5 -29.5t-7 -34t-16.5 -28t-30 -11.5h-79q-33 0 -67 -5t-65 -14t-58 -22t-47 -29q-29 -23 -55.5 -54l-52.5 -64t-53.5 -64.5
t-57.5 -54.5l-33 -24.5t-38.5 -21.5t-54 -19.5t-77.5 -17.5q-27 -5 -68.5 -16t-81 -27t-68 -36t-28.5 -43q0 -10 8 -17t20 -12t27 -8.5t29 -4.5q78 -9 157 -15.5t166.5 -10t187 -5t216.5 -1.5q34 0 80.5 1t97.5 2.5t101.5 3.5l91.5 3.5l68.5 2.5t32.5 1q3 0 4.5 -5t2 -11
l1 -12t0.5 -8z" />
    <glyph glyph-name="uni06D3.fina" unicode="&#x6d3;" horiz-adv-x="1130" arabic-form="final" 
d="M1435 -608q0 -2 -18 -12t-47 -24.5l-66 -32t-75.5 -33.5t-74.5 -29t-64 -20q-30 -8 -81 -13t-109 -8.5t-115 -5t-100 -1.5q-38 0 -94 1.5t-119.5 4.5t-129 8t-121 12t-95.5 16t-53 21q-9 8 -15.5 28.5t-10.5 43.5t-6 44.5t-2 32.5q0 24 17.5 58.5t47.5 74.5t70 82t85 80
q53 45 114 71.5t128 44.5q65 17 105 31t67.5 32.5t50 45.5t53.5 70q68 94 137 142t135 48h79q19 0 30 -11.5t16.5 -28t7 -33.5t1.5 -29t-1.5 -29.5t-7 -34t-16.5 -28t-30 -11.5h-79q-33 0 -67 -5t-65 -14t-58 -22t-47 -29q-29 -23 -55.5 -54l-52.5 -64t-53.5 -64.5
t-57.5 -54.5l-33 -24.5t-38.5 -21.5t-54 -19.5t-77.5 -17.5q-27 -5 -68.5 -16t-81 -27t-68 -36t-28.5 -43q0 -10 8 -17t20 -12t27 -8.5t29 -4.5q78 -9 157 -15.5t166.5 -10t187 -5t216.5 -1.5q34 0 80.5 1t97.5 2.5t101.5 3.5l91.5 3.5l68.5 2.5t32.5 1q3 0 4.5 -5t2 -11
l1 -12t0.5 -8zM671 345q0 -6 -4.5 -18.5t-11.5 -24.5t-14.5 -22t-13.5 -12t-25 -9l-43.5 -16.5l-50.5 -20t-46 -17.5q-49 -19 -84 -36t-43 -17q-5 0 -9 2.5t-4 10.5q0 5 3.5 15.5t8.5 21t10 19.5t7 12q3 3 10 8t15 9.5t15.5 8l11.5 5.5q-8 2 -17.5 7.5t-17.5 14t-14 19.5
t-6 25q0 17 9 38.5t22.5 42.5t28 39t26.5 30q19 19 37 30t33 16.5t28 7t23 1.5q11 0 23 -4.5t22 -13t16.5 -20t6.5 -25.5q0 -13 -4 -28.5t-10 -29t-12.5 -22.5t-10.5 -9t-14.5 6.5l-23.5 14.5t-27 14.5t-26 6.5q-20 0 -34 -12t-14 -23q0 -3 11.5 -12.5t28.5 -19.5t36 -18
t34 -9q12 3 28.5 8l32 9.5l27.5 8t15 3.5q11 0 11 -15z" />
    <glyph glyph-name="uni064A.init" unicode="&#x64a;" horiz-adv-x="439" arabic-form="initial" 
d="M355 354q0 -72 -22.5 -136t-65.5 -112.5t-105 -77t-140 -28.5h-39q-23 0 -36.5 21.5t-13.5 82.5q0 30 4.5 50t12 31t16.5 15.5t17 4.5h39q24 0 54.5 1t60.5 4t55.5 7.5t39.5 12.5q19 11 27 23.5t8 20.5q0 19 -18.5 39t-40 39l-40 36.5t-18.5 31.5q0 6 10 30t25 54.5
t34 62.5t37 55q17 -26 34.5 -58.5t32 -68t23.5 -72t9 -69.5zM286 -74q6 0 27 -14t44 -31.5t41 -34t18 -20.5t-6 -16t-15.5 -28t-21 -33.5t-22 -32t-19 -24t-11.5 -9.5q-4 0 -23.5 14l-42.5 31l-60 46q-6 6 -13 6q-3 0 -8 -9l-41 -58q-16 -22 -31 -39.5t-20 -17.5
q-2 0 -12.5 6.5t-25.5 17l-31 22.5l-30 23t-23 19.5t-9 11.5q0 4 6.5 16t16.5 28.5l21.5 34.5t22.5 32.5l19 24.5t10 10q7 0 27 -14.5l42 -31.5q26 -20 55 -45q6 -7 11 -7q3 0 5.5 2t7.5 9l42 55l30.5 38.5t18.5 17.5z" />
    <glyph glyph-name="uni064A.medi" unicode="&#x64a;" horiz-adv-x="427" arabic-form="medial" 
d="M496 104q0 -49 -9 -76.5t-46 -27.5h-39q-28 0 -46.5 7t-38.5 24q-17 14 -32 37t-25 52q-18 -24 -38.5 -45.5t-48.5 -38t-64 -26.5t-84 -10h-37q-19 0 -30 6.5t-16.5 20t-7 32.5t-1.5 45q0 24 1.5 42.5t7 31.5t16.5 20t30 7h37q52 0 90.5 9.5t65.5 24.5t44.5 31.5t30 31.5
l20.5 24.5t16 9.5q6 0 13 -9t15 -46q3 -13 7.5 -26.5t14 -24.5t24 -18t36.5 -7h39q37 0 46 -26t9 -75zM318 -79q6 0 27 -14t44 -31.5t41 -34t18 -20.5t-6 -16t-15.5 -28t-21 -33.5t-22 -32t-19 -24t-11.5 -9.5q-4 0 -23.5 14l-42.5 31l-60 46q-6 6 -13 6q-3 0 -8 -9l-41 -58
q-16 -22 -31 -39.5t-20 -17.5q-2 0 -12.5 6.5t-25.5 17l-31 22.5l-30 23t-23 19.5t-9 11.5q0 4 6.5 16t16.5 28.5l21.5 34.5t22.5 32.5l19 24.5t10 10q7 0 27 -14.5l42 -31.5q26 -20 55 -45q6 -7 11 -7q3 0 5.5 2t7.5 9l42 55l30.5 38.5t18.5 17.5z" />
    <glyph glyph-name="uni064A.fina" unicode="&#x64a;" horiz-adv-x="1140" arabic-form="final" 
d="M1207 103q0 -12 -1.5 -29.5t-7 -34t-16.5 -28t-30 -11.5h-97q-14 0 -46.5 -0.5t-68.5 -1.5t-68.5 -3.5t-46.5 -6.5q-34 -10 -54.5 -24t-20.5 -30q0 -8 23 -16.5t77 -14.5q47 -5 82 -13t58 -22.5t34.5 -38.5t11.5 -61q0 -31 -19.5 -68t-55.5 -74t-87 -71.5t-113 -61.5
t-134.5 -43t-150.5 -16q-110 0 -184.5 28.5t-120.5 76.5t-65.5 110.5t-19.5 130.5q0 44 11.5 91t28.5 91.5t37.5 84t38 69.5t30 47.5t13.5 17.5q3 0 9 -2.5t12 -6t10.5 -7.5t4.5 -6q0 -3 -14 -27.5t-30.5 -63.5t-30 -89t-13.5 -105t20 -99.5t61.5 -76t105 -48.5t149.5 -17
q24 0 63.5 4.5t84 12t90 17.5t82 21t59.5 22t23 22q0 22 -36.5 26.5t-102.5 6.5q-47 1 -78.5 10t-50 24.5t-26 37t-7.5 48.5q0 32 13 64t35 63t50.5 59.5t60.5 52t65 41.5t64 27q10 3 28.5 5.5t38.5 4t39.5 2.5t30.5 1h97q19 0 30 -11.5t16.5 -28t7 -33.5t1.5 -29zM569 -619
q6 0 27 -14t44 -31.5t41 -34t18 -20.5t-6 -16t-15.5 -28t-21 -33.5t-22 -32t-19 -24t-11.5 -9.5q-4 0 -23.5 14l-42.5 31l-60 46q-6 6 -13 6q-3 0 -8 -9l-41 -58q-16 -22 -31 -39.5t-20 -17.5q-2 0 -12.5 6.5t-25.5 17l-31 22.5l-30 23t-23 19.5t-9 11.5q0 4 6.5 16
t16.5 28.5l21.5 34.5t22.5 32.5l19 24.5t10 10q7 0 27 -14.5l42 -31.5q26 -20 55 -45q6 -7 11 -7q3 0 5.5 2t7.5 9l42 55l30.5 38.5t18.5 17.5z" />
    <glyph glyph-name="uni0678.init" unicode="&#x678;" horiz-adv-x="439" 
d="M355 354q0 -72 -22.5 -136t-65.5 -112.5t-105 -77t-140 -28.5h-39q-23 0 -36.5 21.5t-13.5 82.5q0 30 4.5 50t12 31t16.5 15.5t17 4.5h39q24 0 54.5 1t60.5 4t55.5 7.5t39.5 12.5q19 11 27 23.5t8 20.5q0 19 -18.5 39t-40 39l-40 36.5t-18.5 31.5q0 6 10 30t25 54.5
t34 62.5t37 55q17 -26 34.5 -58.5t32 -68t23.5 -72t9 -69.5zM558 927q0 -6 -4.5 -18.5t-11.5 -24.5t-14.5 -22t-13.5 -12t-25 -9l-43.5 -16.5l-50.5 -20t-46 -17.5q-49 -19 -84 -36t-43 -17q-5 0 -9 2.5t-4 10.5q0 5 3.5 15.5t8.5 21t10 19.5t7 12q3 3 10 8t15 9.5t15.5 8
l11.5 5.5q-8 2 -17.5 7.5t-17.5 14t-14 19.5t-6 25q0 17 9 38.5t22.5 42.5t28 39t26.5 30q19 19 37 30t33 16.5t28 7t23 1.5q11 0 23 -4.5t22 -13t16.5 -20t6.5 -25.5q0 -13 -4 -28.5t-10 -29t-12.5 -22.5t-10.5 -9t-14.5 6.5l-23.5 14.5t-27 14.5t-26 6.5q-20 0 -34 -12
t-14 -23q0 -3 11.5 -12.5t28.5 -19.5t36 -18t34 -9q12 3 28.5 8l32 9.5l27.5 8t15 3.5q11 0 11 -15z" />
    <glyph glyph-name="uni0678.medi" unicode="&#x678;" horiz-adv-x="427" 
d="M496 104q0 -49 -9 -76.5t-46 -27.5h-39q-28 0 -46.5 7t-38.5 24q-17 14 -32 37t-25 52q-18 -24 -38.5 -45.5t-48.5 -38t-64 -26.5t-84 -10h-37q-19 0 -30 6.5t-16.5 20t-7 32.5t-1.5 45q0 24 1.5 42.5t7 31.5t16.5 20t30 7h37q52 0 90.5 9.5t65.5 24.5t44.5 31.5t30 31.5
l20.5 24.5t16 9.5q6 0 13 -9t15 -46q3 -13 7.5 -26.5t14 -24.5t24 -18t36.5 -7h39q37 0 46 -26t9 -75zM560 625q0 -6 -4.5 -18.5t-11.5 -24.5t-14.5 -22t-13.5 -12t-25 -9l-43.5 -16.5l-50.5 -20t-46 -17.5q-49 -19 -84 -36t-43 -17q-5 0 -9 2.5t-4 10.5q0 5 3.5 15.5
t8.5 21t10 19.5t7 12q3 3 10 8t15 9.5t15.5 8l11.5 5.5q-8 2 -17.5 7.5t-17.5 14t-14 19.5t-6 25q0 17 9 38.5t22.5 42.5t28 39t26.5 30q19 19 37 30t33 16.5t28 7t23 1.5q11 0 23 -4.5t22 -13t16.5 -20t6.5 -25.5q0 -13 -4 -28.5t-10 -29t-12.5 -22.5t-10.5 -9t-14.5 6.5
l-23.5 14.5t-27 14.5t-26 6.5q-20 0 -34 -12t-14 -23q0 -3 11.5 -12.5t28.5 -19.5t36 -18t34 -9q12 3 28.5 8l32 9.5l27.5 8t15 3.5q11 0 11 -15z" />
    <glyph glyph-name="uni0678.fina" unicode="&#x678;" horiz-adv-x="1140" 
d="M1207 103q0 -12 -1.5 -29.5t-7 -34t-16.5 -28t-30 -11.5h-97q-14 0 -46.5 -0.5t-68.5 -1.5t-68.5 -3.5t-46.5 -6.5q-34 -10 -54.5 -24t-20.5 -30q0 -8 23 -16.5t77 -14.5q47 -5 82 -13t58 -22.5t34.5 -38.5t11.5 -61q0 -31 -19.5 -68t-55.5 -74t-87 -71.5t-113 -61.5
t-134.5 -43t-150.5 -16q-110 0 -184.5 28.5t-120.5 76.5t-65.5 110.5t-19.5 130.5q0 44 11.5 91t28.5 91.5t37.5 84t38 69.5t30 47.5t13.5 17.5q3 0 9 -2.5t12 -6t10.5 -7.5t4.5 -6q0 -3 -14 -27.5t-30.5 -63.5t-30 -89t-13.5 -105t20 -99.5t61.5 -76t105 -48.5t149.5 -17
q24 0 63.5 4.5t84 12t90 17.5t82 21t59.5 22t23 22q0 22 -36.5 26.5t-102.5 6.5q-47 1 -78.5 10t-50 24.5t-26 37t-7.5 48.5q0 32 13 64t35 63t50.5 59.5t60.5 52t65 41.5t64 27q10 3 28.5 5.5t38.5 4t39.5 2.5t30.5 1h97q19 0 30 -11.5t16.5 -28t7 -33.5t1.5 -29zM926 433
q0 -6 -4.5 -18.5t-11.5 -24.5t-14.5 -22t-13.5 -12t-25 -9l-43.5 -16.5l-50.5 -20t-46 -17.5q-49 -19 -84 -36t-43 -17q-5 0 -9 2.5t-4 10.5q0 5 3.5 15.5t8.5 21t10 19.5t7 12q3 3 10 8t15 9.5t15.5 8l11.5 5.5q-8 2 -17.5 7.5t-17.5 14t-14 19.5t-6 25q0 17 9 38.5
t22.5 42.5t28 39t26.5 30q19 19 37 30t33 16.5t28 7t23 1.5q11 0 23 -4.5t22 -13t16.5 -20t6.5 -25.5q0 -13 -4 -28.5t-10 -29t-12.5 -22.5t-10.5 -9t-14.5 6.5l-23.5 14.5t-27 14.5t-26 6.5q-20 0 -34 -12t-14 -23q0 -3 11.5 -12.5t28.5 -19.5t36 -18t34 -9q12 3 28.5 8
l32 9.5l27.5 8t15 3.5q11 0 11 -15z" />
    <glyph glyph-name="uni06CC.init" unicode="&#x6cc;" horiz-adv-x="439" arabic-form="initial" 
d="M355 354q0 -72 -22.5 -136t-65.5 -112.5t-105 -77t-140 -28.5h-39q-23 0 -36.5 21.5t-13.5 82.5q0 30 4.5 50t12 31t16.5 15.5t17 4.5h39q24 0 54.5 1t60.5 4t55.5 7.5t39.5 12.5q19 11 27 23.5t8 20.5q0 19 -18.5 39t-40 39l-40 36.5t-18.5 31.5q0 6 10 30t25 54.5
t34 62.5t37 55q17 -26 34.5 -58.5t32 -68t23.5 -72t9 -69.5zM286 -74q6 0 27 -14t44 -31.5t41 -34t18 -20.5t-6 -16t-15.5 -28t-21 -33.5t-22 -32t-19 -24t-11.5 -9.5q-4 0 -23.5 14l-42.5 31l-60 46q-6 6 -13 6q-3 0 -8 -9l-41 -58q-16 -22 -31 -39.5t-20 -17.5
q-2 0 -12.5 6.5t-25.5 17l-31 22.5l-30 23t-23 19.5t-9 11.5q0 4 6.5 16t16.5 28.5l21.5 34.5t22.5 32.5l19 24.5t10 10q7 0 27 -14.5l42 -31.5q26 -20 55 -45q6 -7 11 -7q3 0 5.5 2t7.5 9l42 55l30.5 38.5t18.5 17.5z" />
    <glyph glyph-name="uni06CC.medi" unicode="&#x6cc;" horiz-adv-x="427" arabic-form="medial" 
d="M496 104q0 -49 -9 -76.5t-46 -27.5h-39q-28 0 -46.5 7t-38.5 24q-17 14 -32 37t-25 52q-18 -24 -38.5 -45.5t-48.5 -38t-64 -26.5t-84 -10h-37q-19 0 -30 6.5t-16.5 20t-7 32.5t-1.5 45q0 24 1.5 42.5t7 31.5t16.5 20t30 7h37q52 0 90.5 9.5t65.5 24.5t44.5 31.5t30 31.5
l20.5 24.5t16 9.5q6 0 13 -9t15 -46q3 -13 7.5 -26.5t14 -24.5t24 -18t36.5 -7h39q37 0 46 -26t9 -75zM318 -79q6 0 27 -14t44 -31.5t41 -34t18 -20.5t-6 -16t-15.5 -28t-21 -33.5t-22 -32t-19 -24t-11.5 -9.5q-4 0 -23.5 14l-42.5 31l-60 46q-6 6 -13 6q-3 0 -8 -9l-41 -58
q-16 -22 -31 -39.5t-20 -17.5q-2 0 -12.5 6.5t-25.5 17l-31 22.5l-30 23t-23 19.5t-9 11.5q0 4 6.5 16t16.5 28.5l21.5 34.5t22.5 32.5l19 24.5t10 10q7 0 27 -14.5l42 -31.5q26 -20 55 -45q6 -7 11 -7q3 0 5.5 2t7.5 9l42 55l30.5 38.5t18.5 17.5z" />
    <glyph glyph-name="uni06CC.fina" unicode="&#x6cc;" horiz-adv-x="1140" arabic-form="final" 
d="M1207 103q0 -12 -1.5 -29.5t-7 -34t-16.5 -28t-30 -11.5h-97q-14 0 -46.5 -0.5t-68.5 -1.5t-68.5 -3.5t-46.5 -6.5q-34 -10 -54.5 -24t-20.5 -30q0 -8 23 -16.5t77 -14.5q47 -5 82 -13t58 -22.5t34.5 -38.5t11.5 -61q0 -31 -19.5 -68t-55.5 -74t-87 -71.5t-113 -61.5
t-134.5 -43t-150.5 -16q-110 0 -184.5 28.5t-120.5 76.5t-65.5 110.5t-19.5 130.5q0 44 11.5 91t28.5 91.5t37.5 84t38 69.5t30 47.5t13.5 17.5q3 0 9 -2.5t12 -6t10.5 -7.5t4.5 -6q0 -3 -14 -27.5t-30.5 -63.5t-30 -89t-13.5 -105t20 -99.5t61.5 -76t105 -48.5t149.5 -17
q24 0 63.5 4.5t84 12t90 17.5t82 21t59.5 22t23 22q0 22 -36.5 26.5t-102.5 6.5q-47 1 -78.5 10t-50 24.5t-26 37t-7.5 48.5q0 32 13 64t35 63t50.5 59.5t60.5 52t65 41.5t64 27q10 3 28.5 5.5t38.5 4t39.5 2.5t30.5 1h97q19 0 30 -11.5t16.5 -28t7 -33.5t1.5 -29z" />
    <glyph glyph-name="uni063D.init" unicode="&#x63d;" horiz-adv-x="439" 
d="M355 354q0 -72 -22.5 -136t-65.5 -112.5t-105 -77t-140 -28.5h-39q-23 0 -36.5 21.5t-13.5 82.5q0 30 4.5 50t12 31t16.5 15.5t17 4.5h39q24 0 54.5 1t60.5 4t55.5 7.5t39.5 12.5q19 11 27 23.5t8 20.5q0 19 -18.5 39t-40 39l-40 36.5t-18.5 31.5q0 6 10 30t25 54.5
t34 62.5t37 55q17 -26 34.5 -58.5t32 -68t23.5 -72t9 -69.5zM484 724q0 -5 -1 -8t-9 -3h-52q-5 0 -19.5 11l-34 27l-41.5 35l-41.5 35t-34.5 27t-19 11t-19 -11t-34.5 -27l-41 -35l-41 -35l-33.5 -27t-17 -11h-58q-6 0 -8 3.5t-2 7.5q0 2 9.5 15l25 33.5l35 46l40 51l40 49
l34.5 40.5l17.5 20t15.5 9h76q8 0 14.5 -9t16.5 -18q23 -24 54 -62l59.5 -75t48.5 -66t20 -34zM286 -74q6 0 27 -14t44 -31.5t41 -34t18 -20.5t-6 -16t-15.5 -28t-21 -33.5t-22 -32t-19 -24t-11.5 -9.5q-4 0 -23.5 14l-42.5 31l-60 46q-6 6 -13 6q-3 0 -8 -9l-41 -58
q-16 -22 -31 -39.5t-20 -17.5q-2 0 -12.5 6.5t-25.5 17l-31 22.5l-30 23t-23 19.5t-9 11.5q0 4 6.5 16t16.5 28.5l21.5 34.5t22.5 32.5l19 24.5t10 10q7 0 27 -14.5l42 -31.5q26 -20 55 -45q6 -7 11 -7q3 0 5.5 2t7.5 9l42 55l30.5 38.5t18.5 17.5z" />
    <glyph glyph-name="uni063D.medi" unicode="&#x63d;" horiz-adv-x="427" 
d="M496 104q0 -49 -9 -76.5t-46 -27.5h-39q-28 0 -46.5 7t-38.5 24q-17 14 -32 37t-25 52q-18 -24 -38.5 -45.5t-48.5 -38t-64 -26.5t-84 -10h-37q-19 0 -30 6.5t-16.5 20t-7 32.5t-1.5 45q0 24 1.5 42.5t7 31.5t16.5 20t30 7h37q52 0 90.5 9.5t65.5 24.5t44.5 31.5t30 31.5
l20.5 24.5t16 9.5q6 0 13 -9t15 -46q3 -13 7.5 -26.5t14 -24.5t24 -18t36.5 -7h39q37 0 46 -26t9 -75zM469 450q0 -5 -1 -8t-9 -3h-52q-5 0 -19.5 11l-34 27l-41.5 35l-41.5 35t-34.5 27t-19 11t-19 -11t-34.5 -27l-41 -35l-41 -35l-33.5 -27t-17 -11h-58q-6 0 -8 3.5
t-2 7.5q0 2 9.5 15l25 33.5l35 46l40 51l40 49l34.5 40.5l17.5 20t15.5 9h76q8 0 14.5 -9t16.5 -18q23 -24 54 -62l59.5 -75t48.5 -66t20 -34zM318 -79q6 0 27 -14t44 -31.5t41 -34t18 -20.5t-6 -16t-15.5 -28t-21 -33.5t-22 -32t-19 -24t-11.5 -9.5q-4 0 -23.5 14l-42.5 31
l-60 46q-6 6 -13 6q-3 0 -8 -9l-41 -58q-16 -22 -31 -39.5t-20 -17.5q-2 0 -12.5 6.5t-25.5 17l-31 22.5l-30 23t-23 19.5t-9 11.5q0 4 6.5 16t16.5 28.5l21.5 34.5t22.5 32.5l19 24.5t10 10q7 0 27 -14.5l42 -31.5q26 -20 55 -45q6 -7 11 -7q3 0 5.5 2t7.5 9l42 55
l30.5 38.5t18.5 17.5z" />
    <glyph glyph-name="uni063D.fina" unicode="&#x63d;" horiz-adv-x="1140" 
d="M1207 103q0 -12 -1.5 -29.5t-7 -34t-16.5 -28t-30 -11.5h-97q-14 0 -46.5 -0.5t-68.5 -1.5t-68.5 -3.5t-46.5 -6.5q-34 -10 -54.5 -24t-20.5 -30q0 -8 23 -16.5t77 -14.5q47 -5 82 -13t58 -22.5t34.5 -38.5t11.5 -61q0 -31 -19.5 -68t-55.5 -74t-87 -71.5t-113 -61.5
t-134.5 -43t-150.5 -16q-110 0 -184.5 28.5t-120.5 76.5t-65.5 110.5t-19.5 130.5q0 44 11.5 91t28.5 91.5t37.5 84t38 69.5t30 47.5t13.5 17.5q3 0 9 -2.5t12 -6t10.5 -7.5t4.5 -6q0 -3 -14 -27.5t-30.5 -63.5t-30 -89t-13.5 -105t20 -99.5t61.5 -76t105 -48.5t149.5 -17
q24 0 63.5 4.5t84 12t90 17.5t82 21t59.5 22t23 22q0 22 -36.5 26.5t-102.5 6.5q-47 1 -78.5 10t-50 24.5t-26 37t-7.5 48.5q0 32 13 64t35 63t50.5 59.5t60.5 52t65 41.5t64 27q10 3 28.5 5.5t38.5 4t39.5 2.5t30.5 1h97q19 0 30 -11.5t16.5 -28t7 -33.5t1.5 -29zM796 258
q0 -5 -1 -8t-9 -3h-52q-5 0 -19.5 11l-34 27l-41.5 35l-41.5 35t-34.5 27t-19 11t-19 -11t-34.5 -27l-41 -35l-41 -35l-33.5 -27t-17 -11h-58q-6 0 -8 3.5t-2 7.5q0 2 9.5 15l25 33.5l35 46l40 51l40 49l34.5 40.5l17.5 20t15.5 9h76q8 0 14.5 -9t16.5 -18q23 -24 54 -62
l59.5 -75t48.5 -66t20 -34z" />
    <glyph glyph-name="uni063E.init" unicode="&#x63e;" horiz-adv-x="439" 
d="M355 354q0 -72 -22.5 -136t-65.5 -112.5t-105 -77t-140 -28.5h-39q-23 0 -36.5 21.5t-13.5 82.5q0 30 4.5 50t12 31t16.5 15.5t17 4.5h39q24 0 54.5 1t60.5 4t55.5 7.5t39.5 12.5q19 11 27 23.5t8 20.5q0 19 -18.5 39t-40 39l-40 36.5t-18.5 31.5q0 6 10 30t25 54.5
t34 62.5t37 55q17 -26 34.5 -58.5t32 -68t23.5 -72t9 -69.5zM322 983q6 0 27 -14t44 -31.5t41 -34t18 -20.5t-6 -16t-15.5 -28t-21 -33.5t-22 -32t-19 -24t-11.5 -9.5q-4 0 -23.5 14l-42.5 31l-60 46q-6 6 -13 6q-3 0 -8 -9l-41 -58q-16 -22 -31 -39.5t-20 -17.5
q-2 0 -12.5 6.5t-25.5 17l-31 22.5l-30 23t-23 19.5t-9 11.5q0 4 6.5 16t16.5 28.5l21.5 34.5t22.5 32.5l19 24.5t10 10q7 0 27 -14.5l42 -31.5q26 -20 55 -45q6 -7 11 -7q3 0 5.5 2t7.5 9l42 55l30.5 38.5t18.5 17.5zM286 -74q6 0 27 -14t44 -31.5t41 -34t18 -20.5t-6 -16
t-15.5 -28t-21 -33.5t-22 -32t-19 -24t-11.5 -9.5q-4 0 -23.5 14l-42.5 31l-60 46q-6 6 -13 6q-3 0 -8 -9l-41 -58q-16 -22 -31 -39.5t-20 -17.5q-2 0 -12.5 6.5t-25.5 17l-31 22.5l-30 23t-23 19.5t-9 11.5q0 4 6.5 16t16.5 28.5l21.5 34.5t22.5 32.5l19 24.5t10 10
q7 0 27 -14.5l42 -31.5q26 -20 55 -45q6 -7 11 -7q3 0 5.5 2t7.5 9l42 55l30.5 38.5t18.5 17.5z" />
    <glyph glyph-name="uni063E.medi" unicode="&#x63e;" horiz-adv-x="427" 
d="M496 104q0 -49 -9 -76.5t-46 -27.5h-39q-28 0 -46.5 7t-38.5 24q-17 14 -32 37t-25 52q-18 -24 -38.5 -45.5t-48.5 -38t-64 -26.5t-84 -10h-37q-19 0 -30 6.5t-16.5 20t-7 32.5t-1.5 45q0 24 1.5 42.5t7 31.5t16.5 20t30 7h37q52 0 90.5 9.5t65.5 24.5t44.5 31.5t30 31.5
l20.5 24.5t16 9.5q6 0 13 -9t15 -46q3 -13 7.5 -26.5t14 -24.5t24 -18t36.5 -7h39q37 0 46 -26t9 -75zM317 697q6 0 27 -14t44 -31.5t41 -34t18 -20.5t-6 -16t-15.5 -28t-21 -33.5t-22 -32t-19 -24t-11.5 -9.5q-4 0 -23.5 14l-42.5 31l-60 46q-6 6 -13 6q-3 0 -8 -9l-41 -58
q-16 -22 -31 -39.5t-20 -17.5q-2 0 -12.5 6.5t-25.5 17l-31 22.5l-30 23t-23 19.5t-9 11.5q0 4 6.5 16t16.5 28.5l21.5 34.5t22.5 32.5l19 24.5t10 10q7 0 27 -14.5l42 -31.5q26 -20 55 -45q6 -7 11 -7q3 0 5.5 2t7.5 9l42 55l30.5 38.5t18.5 17.5zM318 -79q6 0 27 -14
t44 -31.5t41 -34t18 -20.5t-6 -16t-15.5 -28t-21 -33.5t-22 -32t-19 -24t-11.5 -9.5q-4 0 -23.5 14l-42.5 31l-60 46q-6 6 -13 6q-3 0 -8 -9l-41 -58q-16 -22 -31 -39.5t-20 -17.5q-2 0 -12.5 6.5t-25.5 17l-31 22.5l-30 23t-23 19.5t-9 11.5q0 4 6.5 16t16.5 28.5
l21.5 34.5t22.5 32.5l19 24.5t10 10q7 0 27 -14.5l42 -31.5q26 -20 55 -45q6 -7 11 -7q3 0 5.5 2t7.5 9l42 55l30.5 38.5t18.5 17.5z" />
    <glyph glyph-name="uni063E.fina" unicode="&#x63e;" horiz-adv-x="1140" 
d="M1207 103q0 -12 -1.5 -29.5t-7 -34t-16.5 -28t-30 -11.5h-97q-14 0 -46.5 -0.5t-68.5 -1.5t-68.5 -3.5t-46.5 -6.5q-34 -10 -54.5 -24t-20.5 -30q0 -8 23 -16.5t77 -14.5q47 -5 82 -13t58 -22.5t34.5 -38.5t11.5 -61q0 -31 -19.5 -68t-55.5 -74t-87 -71.5t-113 -61.5
t-134.5 -43t-150.5 -16q-110 0 -184.5 28.5t-120.5 76.5t-65.5 110.5t-19.5 130.5q0 44 11.5 91t28.5 91.5t37.5 84t38 69.5t30 47.5t13.5 17.5q3 0 9 -2.5t12 -6t10.5 -7.5t4.5 -6q0 -3 -14 -27.5t-30.5 -63.5t-30 -89t-13.5 -105t20 -99.5t61.5 -76t105 -48.5t149.5 -17
q24 0 63.5 4.5t84 12t90 17.5t82 21t59.5 22t23 22q0 22 -36.5 26.5t-102.5 6.5q-47 1 -78.5 10t-50 24.5t-26 37t-7.5 48.5q0 32 13 64t35 63t50.5 59.5t60.5 52t65 41.5t64 27q10 3 28.5 5.5t38.5 4t39.5 2.5t30.5 1h97q19 0 30 -11.5t16.5 -28t7 -33.5t1.5 -29zM649 510
q6 0 27 -14t44 -31.5t41 -34t18 -20.5t-6 -16t-15.5 -28t-21 -33.5t-22 -32t-19 -24t-11.5 -9.5q-4 0 -23.5 14l-42.5 31l-60 46q-6 6 -13 6q-3 0 -8 -9l-41 -58q-16 -22 -31 -39.5t-20 -17.5q-2 0 -12.5 6.5t-25.5 17l-31 22.5l-30 23t-23 19.5t-9 11.5q0 4 6.5 16
t16.5 28.5l21.5 34.5t22.5 32.5l19 24.5t10 10q7 0 27 -14.5l42 -31.5q26 -20 55 -45q6 -7 11 -7q3 0 5.5 2t7.5 9l42 55l30.5 38.5t18.5 17.5z" />
    <glyph glyph-name="uni063F.init" unicode="&#x63f;" horiz-adv-x="439" 
d="M355 354q0 -72 -22.5 -136t-65.5 -112.5t-105 -77t-140 -28.5h-39q-23 0 -36.5 21.5t-13.5 82.5q0 30 4.5 50t12 31t16.5 15.5t17 4.5h39q24 0 54.5 1t60.5 4t55.5 7.5t39.5 12.5q19 11 27 23.5t8 20.5q0 19 -18.5 39t-40 39l-40 36.5t-18.5 31.5q0 6 10 30t25 54.5
t34 62.5t37 55q17 -26 34.5 -58.5t32 -68t23.5 -72t9 -69.5zM77 1081q0 6 13 29.5t30 49.5t33.5 46.5t22.5 20.5q2 0 13 -6.5t25.5 -16.5l31 -22.5l30.5 -23.5t23 -20t9 -12q0 -4 -6.5 -16l-16 -28.5t-21.5 -34.5t-23 -32.5t-19.5 -24.5t-11.5 -10q-6 0 -27.5 14t-45 32
t-42 34t-18.5 21zM120 718q-6 0 -27 14t-44 32t-41 34t-18 20q0 6 13 29t29.5 48.5t32 46t20.5 20.5q3 0 23 -14.5l43 -31.5l60 -46q7 -5 13 -5q3 0 8 8l41 57q16 22 31 40t20 18q2 0 12.5 -6.5t25.5 -17l31 -22.5l30 -23t23 -19.5t9 -11.5q0 -4 -6.5 -16t-16.5 -28.5
l-21.5 -34.5t-22.5 -32.5l-19 -24.5t-10 -10q-8 0 -27.5 14l-41.5 31q-26 20 -55 46q-6 7 -11 7q-6 0 -13 -10l-42 -56l-31 -38.5t-18 -17.5zM286 -74q6 0 27 -14t44 -31.5t41 -34t18 -20.5t-6 -16t-15.5 -28t-21 -33.5t-22 -32t-19 -24t-11.5 -9.5q-4 0 -23.5 14l-42.5 31
l-60 46q-6 6 -13 6q-3 0 -8 -9l-41 -58q-16 -22 -31 -39.5t-20 -17.5q-2 0 -12.5 6.5t-25.5 17l-31 22.5l-30 23t-23 19.5t-9 11.5q0 4 6.5 16t16.5 28.5l21.5 34.5t22.5 32.5l19 24.5t10 10q7 0 27 -14.5l42 -31.5q26 -20 55 -45q6 -7 11 -7q3 0 5.5 2t7.5 9l42 55
l30.5 38.5t18.5 17.5z" />
    <glyph glyph-name="uni063F.medi" unicode="&#x63f;" horiz-adv-x="427" 
d="M496 104q0 -49 -9 -76.5t-46 -27.5h-39q-28 0 -46.5 7t-38.5 24q-17 14 -32 37t-25 52q-18 -24 -38.5 -45.5t-48.5 -38t-64 -26.5t-84 -10h-37q-19 0 -30 6.5t-16.5 20t-7 32.5t-1.5 45q0 24 1.5 42.5t7 31.5t16.5 20t30 7h37q52 0 90.5 9.5t65.5 24.5t44.5 31.5t30 31.5
l20.5 24.5t16 9.5q6 0 13 -9t15 -46q3 -13 7.5 -26.5t14 -24.5t24 -18t36.5 -7h39q37 0 46 -26t9 -75zM70 792q0 6 13 29.5t30 49.5t33.5 46.5t22.5 20.5q2 0 13 -6.5t25.5 -16.5l31 -22.5l30.5 -23.5t23 -20t9 -12q0 -4 -6.5 -16l-16 -28.5t-21.5 -34.5t-23 -32.5
t-19.5 -24.5t-11.5 -10q-6 0 -27.5 14t-45 32t-42 34t-18.5 21zM113 429q-6 0 -27 14t-44 32t-41 34t-18 20q0 6 13 29t29.5 48.5t32 46t20.5 20.5q3 0 23 -14.5l43 -31.5l60 -46q7 -5 13 -5q3 0 8 8l41 57q16 22 31 40t20 18q2 0 12.5 -6.5t25.5 -17l31 -22.5l30 -23
t23 -19.5t9 -11.5q0 -4 -6.5 -16t-16.5 -28.5l-21.5 -34.5t-22.5 -32.5l-19 -24.5t-10 -10q-8 0 -27.5 14l-41.5 31q-26 20 -55 46q-6 7 -11 7q-6 0 -13 -10l-42 -56l-31 -38.5t-18 -17.5zM318 -79q6 0 27 -14t44 -31.5t41 -34t18 -20.5t-6 -16t-15.5 -28t-21 -33.5t-22 -32
t-19 -24t-11.5 -9.5q-4 0 -23.5 14l-42.5 31l-60 46q-6 6 -13 6q-3 0 -8 -9l-41 -58q-16 -22 -31 -39.5t-20 -17.5q-2 0 -12.5 6.5t-25.5 17l-31 22.5l-30 23t-23 19.5t-9 11.5q0 4 6.5 16t16.5 28.5l21.5 34.5t22.5 32.5l19 24.5t10 10q7 0 27 -14.5l42 -31.5
q26 -20 55 -45q6 -7 11 -7q3 0 5.5 2t7.5 9l42 55l30.5 38.5t18.5 17.5z" />
    <glyph glyph-name="uni063F.fina" unicode="&#x63f;" horiz-adv-x="1140" 
d="M1207 103q0 -12 -1.5 -29.5t-7 -34t-16.5 -28t-30 -11.5h-97q-14 0 -46.5 -0.5t-68.5 -1.5t-68.5 -3.5t-46.5 -6.5q-34 -10 -54.5 -24t-20.5 -30q0 -8 23 -16.5t77 -14.5q47 -5 82 -13t58 -22.5t34.5 -38.5t11.5 -61q0 -31 -19.5 -68t-55.5 -74t-87 -71.5t-113 -61.5
t-134.5 -43t-150.5 -16q-110 0 -184.5 28.5t-120.5 76.5t-65.5 110.5t-19.5 130.5q0 44 11.5 91t28.5 91.5t37.5 84t38 69.5t30 47.5t13.5 17.5q3 0 9 -2.5t12 -6t10.5 -7.5t4.5 -6q0 -3 -14 -27.5t-30.5 -63.5t-30 -89t-13.5 -105t20 -99.5t61.5 -76t105 -48.5t149.5 -17
q24 0 63.5 4.5t84 12t90 17.5t82 21t59.5 22t23 22q0 22 -36.5 26.5t-102.5 6.5q-47 1 -78.5 10t-50 24.5t-26 37t-7.5 48.5q0 32 13 64t35 63t50.5 59.5t60.5 52t65 41.5t64 27q10 3 28.5 5.5t38.5 4t39.5 2.5t30.5 1h97q19 0 30 -11.5t16.5 -28t7 -33.5t1.5 -29zM387 589
q0 6 13 29.5t30 49.5t33.5 46.5t22.5 20.5q2 0 13 -6.5t25.5 -16.5l31 -22.5l30.5 -23.5t23 -20t9 -12q0 -4 -6.5 -16l-16 -28.5t-21.5 -34.5t-23 -32.5t-19.5 -24.5t-11.5 -10q-6 0 -27.5 14t-45 32t-42 34t-18.5 21zM430 226q-6 0 -27 14t-44 32t-41 34t-18 20q0 6 13 29
t29.5 48.5t32 46t20.5 20.5q3 0 23 -14.5l43 -31.5l60 -46q7 -5 13 -5q3 0 8 8l41 57q16 22 31 40t20 18q2 0 12.5 -6.5t25.5 -17l31 -22.5l30 -23t23 -19.5t9 -11.5q0 -4 -6.5 -16t-16.5 -28.5l-21.5 -34.5t-22.5 -32.5l-19 -24.5t-10 -10q-8 0 -27.5 14l-41.5 31
q-26 20 -55 46q-6 7 -11 7q-6 0 -13 -10l-42 -56l-31 -38.5t-18 -17.5z" />
    <glyph glyph-name="uni06CE.init" unicode="&#x6ce;" horiz-adv-x="439" 
d="M355 354q0 -72 -22.5 -136t-65.5 -112.5t-105 -77t-140 -28.5h-39q-23 0 -36.5 21.5t-13.5 82.5q0 30 4.5 50t12 31t16.5 15.5t17 4.5h39q24 0 54.5 1t60.5 4t55.5 7.5t39.5 12.5q19 11 27 23.5t8 20.5q0 19 -18.5 39t-40 39l-40 36.5t-18.5 31.5q0 6 10 30t25 54.5
t34 62.5t37 55q17 -26 34.5 -58.5t32 -68t23.5 -72t9 -69.5zM0 1024q0 18 17 18h52q3 0 14.5 -11l27.5 -27l34.5 -35.5l34.5 -35.5l28 -27t16 -11t16 11l28 27l34.5 35.5l34.5 35.5l27.5 27t14.5 11h52q17 0 17 -18q0 -1 -9.5 -17l-24 -40t-33.5 -52.5l-37.5 -56
l-35.5 -50.5t-29 -35l-14 -14t-13 -6h-56q-6 0 -12.5 6l-14.5 14q-12 12 -29 35l-35.5 50.5l-37.5 56t-33.5 52.5l-24 39.5t-9.5 17.5zM286 -74q6 0 27 -14t44 -31.5t41 -34t18 -20.5t-6 -16t-15.5 -28t-21 -33.5t-22 -32t-19 -24t-11.5 -9.5q-4 0 -23.5 14l-42.5 31l-60 46
q-6 6 -13 6q-3 0 -8 -9l-41 -58q-16 -22 -31 -39.5t-20 -17.5q-2 0 -12.5 6.5t-25.5 17l-31 22.5l-30 23t-23 19.5t-9 11.5q0 4 6.5 16t16.5 28.5l21.5 34.5t22.5 32.5l19 24.5t10 10q7 0 27 -14.5l42 -31.5q26 -20 55 -45q6 -7 11 -7q3 0 5.5 2t7.5 9l42 55l30.5 38.5
t18.5 17.5z" />
    <glyph glyph-name="uni06CE.medi" unicode="&#x6ce;" horiz-adv-x="427" 
d="M496 104q0 -49 -9 -76.5t-46 -27.5h-39q-28 0 -46.5 7t-38.5 24q-17 14 -32 37t-25 52q-18 -24 -38.5 -45.5t-48.5 -38t-64 -26.5t-84 -10h-37q-19 0 -30 6.5t-16.5 20t-7 32.5t-1.5 45q0 24 1.5 42.5t7 31.5t16.5 20t30 7h37q52 0 90.5 9.5t65.5 24.5t44.5 31.5t30 31.5
l20.5 24.5t16 9.5q6 0 13 -9t15 -46q3 -13 7.5 -26.5t14 -24.5t24 -18t36.5 -7h39q37 0 46 -26t9 -75zM-9 721q0 18 17 18h52q3 0 14.5 -11l27.5 -27l34.5 -35.5l34.5 -35.5l28 -27t16 -11t16 11l28 27l34.5 35.5l34.5 35.5l27.5 27t14.5 11h52q17 0 17 -18q0 -1 -9.5 -17
l-24 -40t-33.5 -52.5l-37.5 -56l-35.5 -50.5t-29 -35l-14 -14t-13 -6h-56q-6 0 -12.5 6l-14.5 14q-12 12 -29 35l-35.5 50.5l-37.5 56t-33.5 52.5l-24 39.5t-9.5 17.5zM318 -79q6 0 27 -14t44 -31.5t41 -34t18 -20.5t-6 -16t-15.5 -28t-21 -33.5t-22 -32t-19 -24t-11.5 -9.5
q-4 0 -23.5 14l-42.5 31l-60 46q-6 6 -13 6q-3 0 -8 -9l-41 -58q-16 -22 -31 -39.5t-20 -17.5q-2 0 -12.5 6.5t-25.5 17l-31 22.5l-30 23t-23 19.5t-9 11.5q0 4 6.5 16t16.5 28.5l21.5 34.5t22.5 32.5l19 24.5t10 10q7 0 27 -14.5l42 -31.5q26 -20 55 -45q6 -7 11 -7
q3 0 5.5 2t7.5 9l42 55l30.5 38.5t18.5 17.5z" />
    <glyph glyph-name="uni06CE.fina" unicode="&#x6ce;" horiz-adv-x="1140" 
d="M1207 103q0 -12 -1.5 -29.5t-7 -34t-16.5 -28t-30 -11.5h-97q-14 0 -46.5 -0.5t-68.5 -1.5t-68.5 -3.5t-46.5 -6.5q-34 -10 -54.5 -24t-20.5 -30q0 -8 23 -16.5t77 -14.5q47 -5 82 -13t58 -22.5t34.5 -38.5t11.5 -61q0 -31 -19.5 -68t-55.5 -74t-87 -71.5t-113 -61.5
t-134.5 -43t-150.5 -16q-110 0 -184.5 28.5t-120.5 76.5t-65.5 110.5t-19.5 130.5q0 44 11.5 91t28.5 91.5t37.5 84t38 69.5t30 47.5t13.5 17.5q3 0 9 -2.5t12 -6t10.5 -7.5t4.5 -6q0 -3 -14 -27.5t-30.5 -63.5t-30 -89t-13.5 -105t20 -99.5t61.5 -76t105 -48.5t149.5 -17
q24 0 63.5 4.5t84 12t90 17.5t82 21t59.5 22t23 22q0 22 -36.5 26.5t-102.5 6.5q-47 1 -78.5 10t-50 24.5t-26 37t-7.5 48.5q0 32 13 64t35 63t50.5 59.5t60.5 52t65 41.5t64 27q10 3 28.5 5.5t38.5 4t39.5 2.5t30.5 1h97q19 0 30 -11.5t16.5 -28t7 -33.5t1.5 -29zM272 537
q0 18 17 18h52q3 0 14.5 -11l27.5 -27l34.5 -35.5l34.5 -35.5l28 -27t16 -11t16 11l28 27l34.5 35.5l34.5 35.5l27.5 27t14.5 11h52q17 0 17 -18q0 -1 -9.5 -17l-24 -40t-33.5 -52.5l-37.5 -56l-35.5 -50.5t-29 -35l-14 -14t-13 -6h-56q-6 0 -12.5 6l-14.5 14q-12 12 -29 35
l-35.5 50.5l-37.5 56t-33.5 52.5l-24 39.5t-9.5 17.5z" />
    <glyph glyph-name="uni06D0.init" unicode="&#x6d0;" horiz-adv-x="439" arabic-form="initial" 
d="M355 354q0 -72 -22.5 -136t-65.5 -112.5t-105 -77t-140 -28.5h-39q-23 0 -36.5 21.5t-13.5 82.5q0 30 4.5 50t12 31t16.5 15.5t17 4.5h39q24 0 54.5 1t60.5 4t55.5 7.5t39.5 12.5q19 11 27 23.5t8 20.5q0 19 -18.5 39t-40 39l-40 36.5t-18.5 31.5q0 6 10 30t25 54.5
t34 62.5t37 55q17 -26 34.5 -58.5t32 -68t23.5 -72t9 -69.5zM297 -401q0 -8 -13.5 -29.5t-30.5 -44.5t-32.5 -41t-19.5 -18q-3 0 -23.5 12t-44 28l-43 30.5t-19.5 19.5q0 6 10.5 22.5t25 35.5l28.5 36.5t22 25.5q5 7 5 11q0 5 -3 8l-28 18.5l-38.5 26.5t-34 26t-14.5 17
q0 3 6.5 14l16 26l21 32t22.5 31t19.5 23.5t12.5 9.5q7 0 29.5 -14.5t46 -32.5t42 -34t18.5 -18q0 -3 -10.5 -18l-24 -34l-27 -37l-19.5 -26q-2 -2 -6 -7t-4 -10q0 -4 9 -10q8 -6 25 -17.5l34 -23.5t29.5 -23t12.5 -15z" />
    <glyph glyph-name="uni06D0.medi" unicode="&#x6d0;" horiz-adv-x="427" arabic-form="medial" 
d="M496 104q0 -49 -9 -76.5t-46 -27.5h-39q-28 0 -46.5 7t-38.5 24q-17 14 -32 37t-25 52q-18 -24 -38.5 -45.5t-48.5 -38t-64 -26.5t-84 -10h-37q-19 0 -30 6.5t-16.5 20t-7 32.5t-1.5 45q0 24 1.5 42.5t7 31.5t16.5 20t30 7h37q52 0 90.5 9.5t65.5 24.5t44.5 31.5t30 31.5
l20.5 24.5t16 9.5q6 0 13 -9t15 -46q3 -13 7.5 -26.5t14 -24.5t24 -18t36.5 -7h39q37 0 46 -26t9 -75zM344 -401q0 -8 -13.5 -29.5t-30.5 -44.5t-32.5 -41t-19.5 -18q-3 0 -23.5 12t-44 28l-43 30.5t-19.5 19.5q0 6 10.5 22.5t25 35.5l28.5 36.5t22 25.5q5 7 5 11q0 5 -3 8
l-28 18.5l-38.5 26.5t-34 26t-14.5 17q0 3 6.5 14l16 26l21 32t22.5 31t19.5 23.5t12.5 9.5q7 0 29.5 -14.5t46 -32.5t42 -34t18.5 -18q0 -3 -10.5 -18l-24 -34l-27 -37l-19.5 -26q-2 -2 -6 -7t-4 -10q0 -4 9 -10q8 -6 25 -17.5l34 -23.5t29.5 -23t12.5 -15z" />
    <glyph glyph-name="uni06D0.fina" unicode="&#x6d0;" horiz-adv-x="1140" arabic-form="final" 
d="M1207 103q0 -12 -1.5 -29.5t-7 -34t-16.5 -28t-30 -11.5h-97q-14 0 -46.5 -0.5t-68.5 -1.5t-68.5 -3.5t-46.5 -6.5q-34 -10 -54.5 -24t-20.5 -30q0 -8 23 -16.5t77 -14.5q47 -5 82 -13t58 -22.5t34.5 -38.5t11.5 -61q0 -31 -19.5 -68t-55.5 -74t-87 -71.5t-113 -61.5
t-134.5 -43t-150.5 -16q-110 0 -184.5 28.5t-120.5 76.5t-65.5 110.5t-19.5 130.5q0 44 11.5 91t28.5 91.5t37.5 84t38 69.5t30 47.5t13.5 17.5q3 0 9 -2.5t12 -6t10.5 -7.5t4.5 -6q0 -3 -14 -27.5t-30.5 -63.5t-30 -89t-13.5 -105t20 -99.5t61.5 -76t105 -48.5t149.5 -17
q24 0 63.5 4.5t84 12t90 17.5t82 21t59.5 22t23 22q0 22 -36.5 26.5t-102.5 6.5q-47 1 -78.5 10t-50 24.5t-26 37t-7.5 48.5q0 32 13 64t35 63t50.5 59.5t60.5 52t65 41.5t64 27q10 3 28.5 5.5t38.5 4t39.5 2.5t30.5 1h97q19 0 30 -11.5t16.5 -28t7 -33.5t1.5 -29zM646 -970
q0 -8 -13.5 -29.5t-30.5 -44.5t-32.5 -41t-19.5 -18q-3 0 -23.5 12t-44 28l-43 30.5t-19.5 19.5q0 6 10.5 22.5t25 35.5l28.5 36.5t22 25.5q5 7 5 11q0 5 -3 8l-28 18.5l-38.5 26.5t-34 26t-14.5 17q0 3 6.5 14l16 26l21 32t22.5 31t19.5 23.5t12.5 9.5q7 0 29.5 -14.5
t46 -32.5t42 -34t18.5 -18q0 -3 -10.5 -18l-24 -34l-27 -37l-19.5 -26q-2 -2 -6 -7t-4 -10q0 -4 9 -10q8 -6 25 -17.5l34 -23.5t29.5 -23t12.5 -15z" />
    <glyph glyph-name="uni06D1.init" unicode="&#x6d1;" horiz-adv-x="439" 
d="M355 354q0 -72 -22.5 -136t-65.5 -112.5t-105 -77t-140 -28.5h-39q-23 0 -36.5 21.5t-13.5 82.5q0 30 4.5 50t12 31t16.5 15.5t17 4.5h39q24 0 54.5 1t60.5 4t55.5 7.5t39.5 12.5q19 11 27 23.5t8 20.5q0 19 -18.5 39t-40 39l-40 36.5t-18.5 31.5q0 6 10 30t25 54.5
t34 62.5t37 55q17 -26 34.5 -58.5t32 -68t23.5 -72t9 -69.5zM285 -72q6 0 27 -14t44 -32t41 -34t18 -20q0 -6 -13 -29t-29.5 -48.5t-32 -46t-20.5 -20.5q-4 0 -23.5 14.5l-42.5 31.5l-60 46q-7 5 -13 5q-3 0 -8 -8l-41 -58q-16 -22 -31 -39.5t-20 -17.5q-2 0 -12.5 6.5
t-25.5 17l-31 22.5l-30 23t-23 19.5t-9 11.5q0 4 6.5 16t16.5 28.5l21.5 34.5t22.5 32.5l19 24.5t10 10q7 0 27 -14.5l42 -31.5q26 -20 55 -45q6 -7 11 -7t13 10l42 56l30.5 38.5t18.5 17.5zM328 -435q0 -6 -13 -29.5t-30 -49.5t-33.5 -46.5t-22.5 -20.5q-2 0 -13 6.5
t-25.5 16.5l-31 22.5l-30.5 23.5t-23 20t-9 12q0 4 6.5 16l16 28.5t21.5 34.5t23 32.5t19.5 24.5t11.5 10q6 0 27.5 -14t45 -32t42 -34.5t18.5 -20.5z" />
    <glyph glyph-name="uni06D1.medi" unicode="&#x6d1;" horiz-adv-x="427" 
d="M496 104q0 -49 -9 -76.5t-46 -27.5h-39q-28 0 -46.5 7t-38.5 24q-17 14 -32 37t-25 52q-18 -24 -38.5 -45.5t-48.5 -38t-64 -26.5t-84 -10h-37q-19 0 -30 6.5t-16.5 20t-7 32.5t-1.5 45q0 24 1.5 42.5t7 31.5t16.5 20t30 7h37q52 0 90.5 9.5t65.5 24.5t44.5 31.5t30 31.5
l20.5 24.5t16 9.5q6 0 13 -9t15 -46q3 -13 7.5 -26.5t14 -24.5t24 -18t36.5 -7h39q37 0 46 -26t9 -75zM322 -70q6 0 27 -14t44 -32t41 -34t18 -20q0 -6 -13 -29t-29.5 -48.5t-32 -46t-20.5 -20.5q-4 0 -23.5 14.5l-42.5 31.5l-60 46q-7 5 -13 5q-3 0 -8 -8l-41 -58
q-16 -22 -31 -39.5t-20 -17.5q-2 0 -12.5 6.5t-25.5 17l-31 22.5l-30 23t-23 19.5t-9 11.5q0 4 6.5 16t16.5 28.5l21.5 34.5t22.5 32.5l19 24.5t10 10q7 0 27 -14.5l42 -31.5q26 -20 55 -45q6 -7 11 -7t13 10l42 56l30.5 38.5t18.5 17.5zM365 -433q0 -6 -13 -29.5t-30 -49.5
t-33.5 -46.5t-22.5 -20.5q-2 0 -13 6.5t-25.5 16.5l-31 22.5l-30.5 23.5t-23 20t-9 12q0 4 6.5 16l16 28.5t21.5 34.5t23 32.5t19.5 24.5t11.5 10q6 0 27.5 -14t45 -32t42 -34.5t18.5 -20.5z" />
    <glyph glyph-name="uni06D1.fina" unicode="&#x6d1;" horiz-adv-x="1140" 
d="M1207 103q0 -12 -1.5 -29.5t-7 -34t-16.5 -28t-30 -11.5h-97q-14 0 -46.5 -0.5t-68.5 -1.5t-68.5 -3.5t-46.5 -6.5q-34 -10 -54.5 -24t-20.5 -30q0 -8 23 -16.5t77 -14.5q47 -5 82 -13t58 -22.5t34.5 -38.5t11.5 -61q0 -31 -19.5 -68t-55.5 -74t-87 -71.5t-113 -61.5
t-134.5 -43t-150.5 -16q-110 0 -184.5 28.5t-120.5 76.5t-65.5 110.5t-19.5 130.5q0 44 11.5 91t28.5 91.5t37.5 84t38 69.5t30 47.5t13.5 17.5q3 0 9 -2.5t12 -6t10.5 -7.5t4.5 -6q0 -3 -14 -27.5t-30.5 -63.5t-30 -89t-13.5 -105t20 -99.5t61.5 -76t105 -48.5t149.5 -17
q24 0 63.5 4.5t84 12t90 17.5t82 21t59.5 22t23 22q0 22 -36.5 26.5t-102.5 6.5q-47 1 -78.5 10t-50 24.5t-26 37t-7.5 48.5q0 32 13 64t35 63t50.5 59.5t60.5 52t65 41.5t64 27q10 3 28.5 5.5t38.5 4t39.5 2.5t30.5 1h97q19 0 30 -11.5t16.5 -28t7 -33.5t1.5 -29zM595 -665
q6 0 27 -14t44 -32t41 -34t18 -20q0 -6 -13 -29t-29.5 -48.5t-32 -46t-20.5 -20.5q-4 0 -23.5 14.5l-42.5 31.5l-60 46q-7 5 -13 5q-3 0 -8 -8l-41 -58q-16 -22 -31 -39.5t-20 -17.5q-2 0 -12.5 6.5t-25.5 17l-31 22.5l-30 23t-23 19.5t-9 11.5q0 4 6.5 16t16.5 28.5
l21.5 34.5t22.5 32.5l19 24.5t10 10q7 0 27 -14.5l42 -31.5q26 -20 55 -45q6 -7 11 -7t13 10l42 56l30.5 38.5t18.5 17.5zM638 -1028q0 -6 -13 -29.5t-30 -49.5t-33.5 -46.5t-22.5 -20.5q-2 0 -13 6.5t-25.5 16.5l-31 22.5l-30.5 23.5t-23 20t-9 12q0 4 6.5 16l16 28.5
t21.5 34.5t23 32.5t19.5 24.5t11.5 10q6 0 27.5 -14t45 -32t42 -34.5t18.5 -20.5z" />
    <glyph glyph-name="uni0649.init" unicode="&#x649;" horiz-adv-x="439" 
d="M355 354q0 -72 -22.5 -136t-65.5 -112.5t-105 -77t-140 -28.5h-39q-23 0 -36.5 21.5t-13.5 82.5q0 30 4.5 50t12 31t16.5 15.5t17 4.5h39q24 0 54.5 1t60.5 4t55.5 7.5t39.5 12.5q19 11 27 23.5t8 20.5q0 19 -18.5 39t-40 39l-40 36.5t-18.5 31.5q0 6 10 30t25 54.5
t34 62.5t37 55q17 -26 34.5 -58.5t32 -68t23.5 -72t9 -69.5z" />
    <glyph glyph-name="uni0649.medi" unicode="&#x649;" horiz-adv-x="427" 
d="M496 104q0 -49 -9 -76.5t-46 -27.5h-39q-28 0 -46.5 7t-38.5 24q-17 14 -32 37t-25 52q-18 -24 -38.5 -45.5t-48.5 -38t-64 -26.5t-84 -10h-37q-19 0 -30 6.5t-16.5 20t-7 32.5t-1.5 45q0 24 1.5 42.5t7 31.5t16.5 20t30 7h37q52 0 90.5 9.5t65.5 24.5t44.5 31.5t30 31.5
l20.5 24.5t16 9.5q6 0 13 -9t15 -46q3 -13 7.5 -26.5t14 -24.5t24 -18t36.5 -7h39q37 0 46 -26t9 -75z" />
    <glyph glyph-name="uni0649.fina" unicode="&#x649;" horiz-adv-x="1140" arabic-form="final" 
d="M1207 103q0 -12 -1.5 -29.5t-7 -34t-16.5 -28t-30 -11.5h-97q-14 0 -46.5 -0.5t-68.5 -1.5t-68.5 -3.5t-46.5 -6.5q-34 -10 -54.5 -24t-20.5 -30q0 -8 23 -16.5t77 -14.5q47 -5 82 -13t58 -22.5t34.5 -38.5t11.5 -61q0 -31 -19.5 -68t-55.5 -74t-87 -71.5t-113 -61.5
t-134.5 -43t-150.5 -16q-110 0 -184.5 28.5t-120.5 76.5t-65.5 110.5t-19.5 130.5q0 44 11.5 91t28.5 91.5t37.5 84t38 69.5t30 47.5t13.5 17.5q3 0 9 -2.5t12 -6t10.5 -7.5t4.5 -6q0 -3 -14 -27.5t-30.5 -63.5t-30 -89t-13.5 -105t20 -99.5t61.5 -76t105 -48.5t149.5 -17
q24 0 63.5 4.5t84 12t90 17.5t82 21t59.5 22t23 22q0 22 -36.5 26.5t-102.5 6.5q-47 1 -78.5 10t-50 24.5t-26 37t-7.5 48.5q0 32 13 64t35 63t50.5 59.5t60.5 52t65 41.5t64 27q10 3 28.5 5.5t38.5 4t39.5 2.5t30.5 1h97q19 0 30 -11.5t16.5 -28t7 -33.5t1.5 -29z" />
    <glyph glyph-name="uni066E.init" unicode="&#x66e;" horiz-adv-x="439" 
d="M355 354q0 -72 -22.5 -136t-65.5 -112.5t-105 -77t-140 -28.5h-39q-23 0 -36.5 21.5t-13.5 82.5q0 30 4.5 50t12 31t16.5 15.5t17 4.5h39q24 0 54.5 1t60.5 4t55.5 7.5t39.5 12.5q19 11 27 23.5t8 20.5q0 19 -18.5 39t-40 39l-40 36.5t-18.5 31.5q0 6 10 30t25 54.5
t34 62.5t37 55q17 -26 34.5 -58.5t32 -68t23.5 -72t9 -69.5z" />
    <glyph glyph-name="uni066E.medi" unicode="&#x66e;" horiz-adv-x="427" 
d="M496 104q0 -49 -9 -76.5t-46 -27.5h-39q-28 0 -46.5 7t-38.5 24q-17 14 -32 37t-25 52q-18 -24 -38.5 -45.5t-48.5 -38t-64 -26.5t-84 -10h-37q-19 0 -30 6.5t-16.5 20t-7 32.5t-1.5 45q0 24 1.5 42.5t7 31.5t16.5 20t30 7h37q52 0 90.5 9.5t65.5 24.5t44.5 31.5t30 31.5
l20.5 24.5t16 9.5q6 0 13 -9t15 -46q3 -13 7.5 -26.5t14 -24.5t24 -18t36.5 -7h39q37 0 46 -26t9 -75z" />
    <glyph glyph-name="uni066E.fina" unicode="&#x66e;" horiz-adv-x="1498" 
d="M1566 103q0 -12 -1 -29.5t-6 -34t-14.5 -28t-26.5 -11.5h-40q-32 0 -58.5 4t-50 16.5t-44 36.5t-39.5 63q-44 -38 -117.5 -74t-168.5 -64.5t-207.5 -46t-234.5 -17.5q-114 0 -203 22.5t-150 63t-93 98t-32 128.5q0 61 18 117.5t40.5 99.5t43 69t24.5 26q1 0 6 -3t10 -7
t9 -8.5t4 -7.5q0 -4 -9.5 -18t-21.5 -37.5t-21.5 -55.5t-9.5 -71q0 -55 36.5 -93t98.5 -61.5t143.5 -34t171.5 -10.5q102 0 196.5 6.5t174.5 20t142 35t101 51.5q10 7 18.5 17l15.5 18t13.5 14t12.5 6q8 0 14.5 -6t11.5 -15l10.5 -19.5t12.5 -19.5q14 -17 45.5 -27.5
t86.5 -10.5h40q17 0 26.5 -11.5t14.5 -28t6 -33.5t1 -29z" />
    <glyph glyph-name="uni0628.init" unicode="&#x628;" horiz-adv-x="439" arabic-form="initial" 
d="M355 354q0 -72 -22.5 -136t-65.5 -112.5t-105 -77t-140 -28.5h-39q-23 0 -36.5 21.5t-13.5 82.5q0 30 4.5 50t12 31t16.5 15.5t17 4.5h39q24 0 54.5 1t60.5 4t55.5 7.5t39.5 12.5q19 11 27 23.5t8 20.5q0 19 -18.5 39t-40 39l-40 36.5t-18.5 31.5q0 6 10 30t25 54.5
t34 62.5t37 55q17 -26 34.5 -58.5t32 -68t23.5 -72t9 -69.5zM291 -184q0 -4 -6.5 -16.5t-16.5 -29.5t-22.5 -36t-24 -34.5t-21.5 -26t-14 -10.5q-3 0 -25.5 14.5t-47.5 33t-45.5 36t-20.5 22.5q0 4 6.5 17t17 30l23 36t24 34.5t20.5 26t13 10.5q6 0 28.5 -15t47.5 -33.5
t44.5 -36t19.5 -22.5z" />
    <glyph glyph-name="uni0628.medi" unicode="&#x628;" horiz-adv-x="427" arabic-form="medial" 
d="M496 104q0 -49 -9 -76.5t-46 -27.5h-39q-28 0 -46.5 7t-38.5 24q-17 14 -32 37t-25 52q-18 -24 -38.5 -45.5t-48.5 -38t-64 -26.5t-84 -10h-37q-19 0 -30 6.5t-16.5 20t-7 32.5t-1.5 45q0 24 1.5 42.5t7 31.5t16.5 20t30 7h37q52 0 90.5 9.5t65.5 24.5t44.5 31.5t30 31.5
l20.5 24.5t16 9.5q6 0 13 -9t15 -46q3 -13 7.5 -26.5t14 -24.5t24 -18t36.5 -7h39q37 0 46 -26t9 -75zM326 -192q0 -4 -6.5 -16.5t-16.5 -29.5t-22.5 -36t-24 -34.5t-21.5 -26t-14 -10.5q-3 0 -25.5 14.5t-47.5 33t-45.5 36t-20.5 22.5q0 4 6.5 17t17 30l23 36t24 34.5
t20.5 26t13 10.5q6 0 28.5 -15t47.5 -33.5t44.5 -36t19.5 -22.5z" />
    <glyph glyph-name="uni0628.fina" unicode="&#x628;" horiz-adv-x="1498" arabic-form="final" 
d="M1566 103q0 -12 -1 -29.5t-6 -34t-14.5 -28t-26.5 -11.5h-40q-32 0 -58.5 4t-50 16.5t-44 36.5t-39.5 63q-44 -38 -117.5 -74t-168.5 -64.5t-207.5 -46t-234.5 -17.5q-114 0 -203 22.5t-150 63t-93 98t-32 128.5q0 61 18 117.5t40.5 99.5t43 69t24.5 26q1 0 6 -3t10 -7
t9 -8.5t4 -7.5q0 -4 -9.5 -18t-21.5 -37.5t-21.5 -55.5t-9.5 -71q0 -55 36.5 -93t98.5 -61.5t143.5 -34t171.5 -10.5q102 0 196.5 6.5t174.5 20t142 35t101 51.5q10 7 18.5 17l15.5 18t13.5 14t12.5 6q8 0 14.5 -6t11.5 -15l10.5 -19.5t12.5 -19.5q14 -17 45.5 -27.5
t86.5 -10.5h40q17 0 26.5 -11.5t14.5 -28t6 -33.5t1 -29zM773 -266q0 -4 -6.5 -16.5t-16.5 -29.5t-22.5 -36t-24 -34.5t-21.5 -26t-14 -10.5q-3 0 -25.5 14.5t-47.5 33t-45.5 36t-20.5 22.5q0 4 6.5 17t17 30l23 36t24 34.5t20.5 26t13 10.5q6 0 28.5 -15t47.5 -33.5
t44.5 -36t19.5 -22.5z" />
    <glyph glyph-name="uni062A.init" unicode="&#x62a;" horiz-adv-x="439" arabic-form="initial" 
d="M355 354q0 -72 -22.5 -136t-65.5 -112.5t-105 -77t-140 -28.5h-39q-23 0 -36.5 21.5t-13.5 82.5q0 30 4.5 50t12 31t16.5 15.5t17 4.5h39q24 0 54.5 1t60.5 4t55.5 7.5t39.5 12.5q19 11 27 23.5t8 20.5q0 19 -18.5 39t-40 39l-40 36.5t-18.5 31.5q0 6 10 30t25 54.5
t34 62.5t37 55q17 -26 34.5 -58.5t32 -68t23.5 -72t9 -69.5zM322 983q6 0 27 -14t44 -31.5t41 -34t18 -20.5t-6 -16t-15.5 -28t-21 -33.5t-22 -32t-19 -24t-11.5 -9.5q-4 0 -23.5 14l-42.5 31l-60 46q-6 6 -13 6q-3 0 -8 -9l-41 -58q-16 -22 -31 -39.5t-20 -17.5
q-2 0 -12.5 6.5t-25.5 17l-31 22.5l-30 23t-23 19.5t-9 11.5q0 4 6.5 16t16.5 28.5l21.5 34.5t22.5 32.5l19 24.5t10 10q7 0 27 -14.5l42 -31.5q26 -20 55 -45q6 -7 11 -7q3 0 5.5 2t7.5 9l42 55l30.5 38.5t18.5 17.5z" />
    <glyph glyph-name="uni062A.medi" unicode="&#x62a;" horiz-adv-x="427" arabic-form="medial" 
d="M496 104q0 -49 -9 -76.5t-46 -27.5h-39q-28 0 -46.5 7t-38.5 24q-17 14 -32 37t-25 52q-18 -24 -38.5 -45.5t-48.5 -38t-64 -26.5t-84 -10h-37q-19 0 -30 6.5t-16.5 20t-7 32.5t-1.5 45q0 24 1.5 42.5t7 31.5t16.5 20t30 7h37q52 0 90.5 9.5t65.5 24.5t44.5 31.5t30 31.5
l20.5 24.5t16 9.5q6 0 13 -9t15 -46q3 -13 7.5 -26.5t14 -24.5t24 -18t36.5 -7h39q37 0 46 -26t9 -75zM317 697q6 0 27 -14t44 -31.5t41 -34t18 -20.5t-6 -16t-15.5 -28t-21 -33.5t-22 -32t-19 -24t-11.5 -9.5q-4 0 -23.5 14l-42.5 31l-60 46q-6 6 -13 6q-3 0 -8 -9l-41 -58
q-16 -22 -31 -39.5t-20 -17.5q-2 0 -12.5 6.5t-25.5 17l-31 22.5l-30 23t-23 19.5t-9 11.5q0 4 6.5 16t16.5 28.5l21.5 34.5t22.5 32.5l19 24.5t10 10q7 0 27 -14.5l42 -31.5q26 -20 55 -45q6 -7 11 -7q3 0 5.5 2t7.5 9l42 55l30.5 38.5t18.5 17.5z" />
    <glyph glyph-name="uni062A.fina" unicode="&#x62a;" horiz-adv-x="1498" arabic-form="final" 
d="M1566 103q0 -12 -1 -29.5t-6 -34t-14.5 -28t-26.5 -11.5h-40q-32 0 -58.5 4t-50 16.5t-44 36.5t-39.5 63q-44 -38 -117.5 -74t-168.5 -64.5t-207.5 -46t-234.5 -17.5q-114 0 -203 22.5t-150 63t-93 98t-32 128.5q0 61 18 117.5t40.5 99.5t43 69t24.5 26q1 0 6 -3t10 -7
t9 -8.5t4 -7.5q0 -4 -9.5 -18t-21.5 -37.5t-21.5 -55.5t-9.5 -71q0 -55 36.5 -93t98.5 -61.5t143.5 -34t171.5 -10.5q102 0 196.5 6.5t174.5 20t142 35t101 51.5q10 7 18.5 17l15.5 18t13.5 14t12.5 6q8 0 14.5 -6t11.5 -15l10.5 -19.5t12.5 -19.5q14 -17 45.5 -27.5
t86.5 -10.5h40q17 0 26.5 -11.5t14.5 -28t6 -33.5t1 -29zM805 710q6 0 27 -14t44 -31.5t41 -34t18 -20.5t-6 -16t-15.5 -28t-21 -33.5t-22 -32t-19 -24t-11.5 -9.5q-4 0 -23.5 14l-42.5 31l-60 46q-6 6 -13 6q-3 0 -8 -9l-41 -58q-16 -22 -31 -39.5t-20 -17.5
q-2 0 -12.5 6.5t-25.5 17l-31 22.5l-30 23t-23 19.5t-9 11.5q0 4 6.5 16t16.5 28.5l21.5 34.5t22.5 32.5l19 24.5t10 10q7 0 27 -14.5l42 -31.5q26 -20 55 -45q6 -7 11 -7q3 0 5.5 2t7.5 9l42 55l30.5 38.5t18.5 17.5z" />
    <glyph glyph-name="uni062B.init" unicode="&#x62b;" horiz-adv-x="439" arabic-form="initial" 
d="M355 354q0 -72 -22.5 -136t-65.5 -112.5t-105 -77t-140 -28.5h-39q-23 0 -36.5 21.5t-13.5 82.5q0 30 4.5 50t12 31t16.5 15.5t17 4.5h39q24 0 54.5 1t60.5 4t55.5 7.5t39.5 12.5q19 11 27 23.5t8 20.5q0 19 -18.5 39t-40 39l-40 36.5t-18.5 31.5q0 6 10 30t25 54.5
t34 62.5t37 55q17 -26 34.5 -58.5t32 -68t23.5 -72t9 -69.5zM77 1081q0 6 13 29.5t30 49.5t33.5 46.5t22.5 20.5q2 0 13 -6.5t25.5 -16.5l31 -22.5l30.5 -23.5t23 -20t9 -12q0 -4 -6.5 -16l-16 -28.5t-21.5 -34.5t-23 -32.5t-19.5 -24.5t-11.5 -10q-6 0 -27.5 14t-45 32
t-42 34t-18.5 21zM120 718q-6 0 -27 14t-44 32t-41 34t-18 20q0 6 13 29t29.5 48.5t32 46t20.5 20.5q3 0 23 -14.5l43 -31.5l60 -46q7 -5 13 -5q3 0 8 8l41 57q16 22 31 40t20 18q2 0 12.5 -6.5t25.5 -17l31 -22.5l30 -23t23 -19.5t9 -11.5q0 -4 -6.5 -16t-16.5 -28.5
l-21.5 -34.5t-22.5 -32.5l-19 -24.5t-10 -10q-8 0 -27.5 14l-41.5 31q-26 20 -55 46q-6 7 -11 7q-6 0 -13 -10l-42 -56l-31 -38.5t-18 -17.5z" />
    <glyph glyph-name="uni062B.medi" unicode="&#x62b;" horiz-adv-x="427" arabic-form="medial" 
d="M496 104q0 -49 -9 -76.5t-46 -27.5h-39q-28 0 -46.5 7t-38.5 24q-17 14 -32 37t-25 52q-18 -24 -38.5 -45.5t-48.5 -38t-64 -26.5t-84 -10h-37q-19 0 -30 6.5t-16.5 20t-7 32.5t-1.5 45q0 24 1.5 42.5t7 31.5t16.5 20t30 7h37q52 0 90.5 9.5t65.5 24.5t44.5 31.5t30 31.5
l20.5 24.5t16 9.5q6 0 13 -9t15 -46q3 -13 7.5 -26.5t14 -24.5t24 -18t36.5 -7h39q37 0 46 -26t9 -75zM70 792q0 6 13 29.5t30 49.5t33.5 46.5t22.5 20.5q2 0 13 -6.5t25.5 -16.5l31 -22.5l30.5 -23.5t23 -20t9 -12q0 -4 -6.5 -16l-16 -28.5t-21.5 -34.5t-23 -32.5
t-19.5 -24.5t-11.5 -10q-6 0 -27.5 14t-45 32t-42 34t-18.5 21zM113 429q-6 0 -27 14t-44 32t-41 34t-18 20q0 6 13 29t29.5 48.5t32 46t20.5 20.5q3 0 23 -14.5l43 -31.5l60 -46q7 -5 13 -5q3 0 8 8l41 57q16 22 31 40t20 18q2 0 12.5 -6.5t25.5 -17l31 -22.5l30 -23
t23 -19.5t9 -11.5q0 -4 -6.5 -16t-16.5 -28.5l-21.5 -34.5t-22.5 -32.5l-19 -24.5t-10 -10q-8 0 -27.5 14l-41.5 31q-26 20 -55 46q-6 7 -11 7q-6 0 -13 -10l-42 -56l-31 -38.5t-18 -17.5z" />
    <glyph glyph-name="uni062B.fina" unicode="&#x62b;" horiz-adv-x="1498" arabic-form="final" 
d="M1566 103q0 -12 -1 -29.5t-6 -34t-14.5 -28t-26.5 -11.5h-40q-32 0 -58.5 4t-50 16.5t-44 36.5t-39.5 63q-44 -38 -117.5 -74t-168.5 -64.5t-207.5 -46t-234.5 -17.5q-114 0 -203 22.5t-150 63t-93 98t-32 128.5q0 61 18 117.5t40.5 99.5t43 69t24.5 26q1 0 6 -3t10 -7
t9 -8.5t4 -7.5q0 -4 -9.5 -18t-21.5 -37.5t-21.5 -55.5t-9.5 -71q0 -55 36.5 -93t98.5 -61.5t143.5 -34t171.5 -10.5q102 0 196.5 6.5t174.5 20t142 35t101 51.5q10 7 18.5 17l15.5 18t13.5 14t12.5 6q8 0 14.5 -6t11.5 -15l10.5 -19.5t12.5 -19.5q14 -17 45.5 -27.5
t86.5 -10.5h40q17 0 26.5 -11.5t14.5 -28t6 -33.5t1 -29zM567 803q0 6 13 29.5t30 49.5t33.5 46.5t22.5 20.5q2 0 13 -6.5t25.5 -16.5l31 -22.5l30.5 -23.5t23 -20t9 -12q0 -4 -6.5 -16l-16 -28.5t-21.5 -34.5t-23 -32.5t-19.5 -24.5t-11.5 -10q-6 0 -27.5 14t-45 32t-42 34
t-18.5 21zM610 440q-6 0 -27 14t-44 32t-41 34t-18 20q0 6 13 29t29.5 48.5t32 46t20.5 20.5q3 0 23 -14.5l43 -31.5l60 -46q7 -5 13 -5q3 0 8 8l41 57q16 22 31 40t20 18q2 0 12.5 -6.5t25.5 -17l31 -22.5l30 -23t23 -19.5t9 -11.5q0 -4 -6.5 -16t-16.5 -28.5l-21.5 -34.5
t-22.5 -32.5l-19 -24.5t-10 -10q-8 0 -27.5 14l-41.5 31q-26 20 -55 46q-6 7 -11 7q-6 0 -13 -10l-42 -56l-31 -38.5t-18 -17.5z" />
    <glyph glyph-name="uni0679.init" unicode="&#x679;" horiz-adv-x="439" arabic-form="initial" 
d="M355 354q0 -72 -22.5 -136t-65.5 -112.5t-105 -77t-140 -28.5h-39q-23 0 -36.5 21.5t-13.5 82.5q0 30 4.5 50t12 31t16.5 15.5t17 4.5h39q24 0 54.5 1t60.5 4t55.5 7.5t39.5 12.5q19 11 27 23.5t8 20.5q0 19 -18.5 39t-40 39l-40 36.5t-18.5 31.5q0 6 10 30t25 54.5
t34 62.5t37 55q17 -26 34.5 -58.5t32 -68t23.5 -72t9 -69.5zM449 922q0 -52 -38.5 -90.5t-98 -64.5t-129.5 -39t-133 -13q-12 0 -29 12.5t-33 29t-27.5 33.5t-11.5 25q0 9 8 9q5 0 16 -1t24 -1.5t26 -1.5t23 -1q21 0 32.5 8.5t17.5 25.5q5 14 7 28.5t2 22.5q0 34 -5 69
t-11 68l-11 63t-5 54q0 17 6 33t14 28t17 19.5t14 7.5q2 0 12 -14.5l21 -32t19.5 -32.5t8.5 -16q-8 -7 -14.5 -17t-6.5 -30q0 -29 3 -64t3 -61q0 -14 -2 -40.5t-6 -51.5q24 29 50 54t52.5 44t52 29.5t48.5 10.5q21 0 37 -10t26.5 -25t15.5 -33t5 -35zM375 892q0 11 -16 13
t-35 2t-42 -6.5t-47 -17.5t-47.5 -26.5t-41.5 -34.5q59 4 102.5 15t71.5 22.5t41.5 21t13.5 11.5z" />
    <glyph glyph-name="uni0679.medi" unicode="&#x679;" horiz-adv-x="427" arabic-form="medial" 
d="M496 104q0 -49 -9 -76.5t-46 -27.5h-39q-28 0 -46.5 7t-38.5 24q-17 14 -32 37t-25 52q-18 -24 -38.5 -45.5t-48.5 -38t-64 -26.5t-84 -10h-37q-19 0 -30 6.5t-16.5 20t-7 32.5t-1.5 45q0 24 1.5 42.5t7 31.5t16.5 20t30 7h37q52 0 90.5 9.5t65.5 24.5t44.5 31.5t30 31.5
l20.5 24.5t16 9.5q6 0 13 -9t15 -46q3 -13 7.5 -26.5t14 -24.5t24 -18t36.5 -7h39q37 0 46 -26t9 -75zM471 663q0 -52 -38.5 -90.5t-98 -64.5t-129.5 -39t-133 -13q-12 0 -29 12.5t-33 29t-27.5 33.5t-11.5 25q0 9 8 9q5 0 16 -1t24 -1.5t26 -1.5t23 -1q21 0 32.5 8.5
t17.5 25.5q5 14 7 28.5t2 22.5q0 34 -5 69t-11 68l-11 63t-5 54q0 17 6 33t14 28t17 19.5t14 7.5q2 0 12 -14.5l21 -32t19.5 -32.5t8.5 -16q-8 -7 -14.5 -17t-6.5 -30q0 -29 3 -64t3 -61q0 -14 -2 -40.5t-6 -51.5q24 29 50 54t52.5 44t52 29.5t48.5 10.5q21 0 37 -10
t26.5 -25t15.5 -33t5 -35zM397 633q0 11 -16 13t-35 2t-42 -6.5t-47 -17.5t-47.5 -26.5t-41.5 -34.5q59 4 102.5 15t71.5 22.5t41.5 21t13.5 11.5z" />
    <glyph glyph-name="uni0679.fina" unicode="&#x679;" horiz-adv-x="1498" arabic-form="final" 
d="M1566 103q0 -12 -1 -29.5t-6 -34t-14.5 -28t-26.5 -11.5h-40q-32 0 -58.5 4t-50 16.5t-44 36.5t-39.5 63q-44 -38 -117.5 -74t-168.5 -64.5t-207.5 -46t-234.5 -17.5q-114 0 -203 22.5t-150 63t-93 98t-32 128.5q0 61 18 117.5t40.5 99.5t43 69t24.5 26q1 0 6 -3t10 -7
t9 -8.5t4 -7.5q0 -4 -9.5 -18t-21.5 -37.5t-21.5 -55.5t-9.5 -71q0 -55 36.5 -93t98.5 -61.5t143.5 -34t171.5 -10.5q102 0 196.5 6.5t174.5 20t142 35t101 51.5q10 7 18.5 17l15.5 18t13.5 14t12.5 6q8 0 14.5 -6t11.5 -15l10.5 -19.5t12.5 -19.5q14 -17 45.5 -27.5
t86.5 -10.5h40q17 0 26.5 -11.5t14.5 -28t6 -33.5t1 -29zM947 626q0 -52 -38.5 -90.5t-98 -64.5t-129.5 -39t-133 -13q-12 0 -29 12.5t-33 29t-27.5 33.5t-11.5 25q0 9 8 9q5 0 16 -1t24 -1.5t26 -1.5t23 -1q21 0 32.5 8.5t17.5 25.5q5 14 7 28.5t2 22.5q0 34 -5 69t-11 68
l-11 63t-5 54q0 17 6 33t14 28t17 19.5t14 7.5q2 0 12 -14.5l21 -32t19.5 -32.5t8.5 -16q-8 -7 -14.5 -17t-6.5 -30q0 -29 3 -64t3 -61q0 -14 -2 -40.5t-6 -51.5q24 29 50 54t52.5 44t52 29.5t48.5 10.5q21 0 37 -10t26.5 -25t15.5 -33t5 -35zM873 596q0 11 -16 13t-35 2
t-42 -6.5t-47 -17.5t-47.5 -26.5t-41.5 -34.5q59 4 102.5 15t71.5 22.5t41.5 21t13.5 11.5z" />
    <glyph glyph-name="uni067A.init" unicode="&#x67a;" horiz-adv-x="439" arabic-form="initial" 
d="M355 354q0 -72 -22.5 -136t-65.5 -112.5t-105 -77t-140 -28.5h-39q-23 0 -36.5 21.5t-13.5 82.5q0 30 4.5 50t12 31t16.5 15.5t17 4.5h39q24 0 54.5 1t60.5 4t55.5 7.5t39.5 12.5q19 11 27 23.5t8 20.5q0 19 -18.5 39t-40 39l-40 36.5t-18.5 31.5q0 6 10 30t25 54.5
t34 62.5t37 55q17 -26 34.5 -58.5t32 -68t23.5 -72t9 -69.5zM327 871q0 -8 -13.5 -29.5t-30.5 -44.5t-32.5 -41t-19.5 -18q-3 0 -23.5 12t-44 28l-43 30.5t-19.5 19.5q0 6 10.5 22.5t25 35.5l28.5 36.5t22 25.5q5 7 5 11q0 5 -3 8l-28 18.5l-38.5 26.5t-34 26t-14.5 17
q0 3 6.5 14l16 26l21 32t22.5 31t19.5 23.5t12.5 9.5q7 0 29.5 -14.5t46 -32.5t42 -34t18.5 -18q0 -3 -10.5 -18l-24 -34l-27 -37l-19.5 -26q-2 -2 -6 -7t-4 -10q0 -4 9 -10q8 -6 25 -17.5l34 -23.5t29.5 -23t12.5 -15z" />
    <glyph glyph-name="uni067A.medi" unicode="&#x67a;" horiz-adv-x="427" arabic-form="medial" 
d="M496 104q0 -49 -9 -76.5t-46 -27.5h-39q-28 0 -46.5 7t-38.5 24q-17 14 -32 37t-25 52q-18 -24 -38.5 -45.5t-48.5 -38t-64 -26.5t-84 -10h-37q-19 0 -30 6.5t-16.5 20t-7 32.5t-1.5 45q0 24 1.5 42.5t7 31.5t16.5 20t30 7h37q52 0 90.5 9.5t65.5 24.5t44.5 31.5t30 31.5
l20.5 24.5t16 9.5q6 0 13 -9t15 -46q3 -13 7.5 -26.5t14 -24.5t24 -18t36.5 -7h39q37 0 46 -26t9 -75zM344 595q0 -8 -13.5 -29.5t-30.5 -44.5t-32.5 -41t-19.5 -18q-3 0 -23.5 12t-44 28l-43 30.5t-19.5 19.5q0 6 10.5 22.5t25 35.5l28.5 36.5t22 25.5q5 7 5 11q0 5 -3 8
l-28 18.5l-38.5 26.5t-34 26t-14.5 17q0 3 6.5 14l16 26l21 32t22.5 31t19.5 23.5t12.5 9.5q7 0 29.5 -14.5t46 -32.5t42 -34t18.5 -18q0 -3 -10.5 -18l-24 -34l-27 -37l-19.5 -26q-2 -2 -6 -7t-4 -10q0 -4 9 -10q8 -6 25 -17.5l34 -23.5t29.5 -23t12.5 -15z" />
    <glyph glyph-name="uni067A.fina" unicode="&#x67a;" horiz-adv-x="1498" arabic-form="final" 
d="M1566 103q0 -12 -1 -29.5t-6 -34t-14.5 -28t-26.5 -11.5h-40q-32 0 -58.5 4t-50 16.5t-44 36.5t-39.5 63q-44 -38 -117.5 -74t-168.5 -64.5t-207.5 -46t-234.5 -17.5q-114 0 -203 22.5t-150 63t-93 98t-32 128.5q0 61 18 117.5t40.5 99.5t43 69t24.5 26q1 0 6 -3t10 -7
t9 -8.5t4 -7.5q0 -4 -9.5 -18t-21.5 -37.5t-21.5 -55.5t-9.5 -71q0 -55 36.5 -93t98.5 -61.5t143.5 -34t171.5 -10.5q102 0 196.5 6.5t174.5 20t142 35t101 51.5q10 7 18.5 17l15.5 18t13.5 14t12.5 6q8 0 14.5 -6t11.5 -15l10.5 -19.5t12.5 -19.5q14 -17 45.5 -27.5
t86.5 -10.5h40q17 0 26.5 -11.5t14.5 -28t6 -33.5t1 -29zM816 600q0 -8 -13.5 -29.5t-30.5 -44.5t-32.5 -41t-19.5 -18q-3 0 -23.5 12t-44 28l-43 30.5t-19.5 19.5q0 6 10.5 22.5t25 35.5l28.5 36.5t22 25.5q5 7 5 11q0 5 -3 8l-28 18.5l-38.5 26.5t-34 26t-14.5 17
q0 3 6.5 14l16 26l21 32t22.5 31t19.5 23.5t12.5 9.5q7 0 29.5 -14.5t46 -32.5t42 -34t18.5 -18q0 -3 -10.5 -18l-24 -34l-27 -37l-19.5 -26q-2 -2 -6 -7t-4 -10q0 -4 9 -10q8 -6 25 -17.5l34 -23.5t29.5 -23t12.5 -15z" />
    <glyph glyph-name="uni067B.init" unicode="&#x67b;" horiz-adv-x="439" arabic-form="initial" 
d="M355 354q0 -72 -22.5 -136t-65.5 -112.5t-105 -77t-140 -28.5h-39q-23 0 -36.5 21.5t-13.5 82.5q0 30 4.5 50t12 31t16.5 15.5t17 4.5h39q24 0 54.5 1t60.5 4t55.5 7.5t39.5 12.5q19 11 27 23.5t8 20.5q0 19 -18.5 39t-40 39l-40 36.5t-18.5 31.5q0 6 10 30t25 54.5
t34 62.5t37 55q17 -26 34.5 -58.5t32 -68t23.5 -72t9 -69.5zM297 -401q0 -8 -13.5 -29.5t-30.5 -44.5t-32.5 -41t-19.5 -18q-3 0 -23.5 12t-44 28l-43 30.5t-19.5 19.5q0 6 10.5 22.5t25 35.5l28.5 36.5t22 25.5q5 7 5 11q0 5 -3 8l-28 18.5l-38.5 26.5t-34 26t-14.5 17
q0 3 6.5 14l16 26l21 32t22.5 31t19.5 23.5t12.5 9.5q7 0 29.5 -14.5t46 -32.5t42 -34t18.5 -18q0 -3 -10.5 -18l-24 -34l-27 -37l-19.5 -26q-2 -2 -6 -7t-4 -10q0 -4 9 -10q8 -6 25 -17.5l34 -23.5t29.5 -23t12.5 -15z" />
    <glyph glyph-name="uni067B.medi" unicode="&#x67b;" horiz-adv-x="427" arabic-form="medial" 
d="M496 104q0 -49 -9 -76.5t-46 -27.5h-39q-28 0 -46.5 7t-38.5 24q-17 14 -32 37t-25 52q-18 -24 -38.5 -45.5t-48.5 -38t-64 -26.5t-84 -10h-37q-19 0 -30 6.5t-16.5 20t-7 32.5t-1.5 45q0 24 1.5 42.5t7 31.5t16.5 20t30 7h37q52 0 90.5 9.5t65.5 24.5t44.5 31.5t30 31.5
l20.5 24.5t16 9.5q6 0 13 -9t15 -46q3 -13 7.5 -26.5t14 -24.5t24 -18t36.5 -7h39q37 0 46 -26t9 -75zM344 -401q0 -8 -13.5 -29.5t-30.5 -44.5t-32.5 -41t-19.5 -18q-3 0 -23.5 12t-44 28l-43 30.5t-19.5 19.5q0 6 10.5 22.5t25 35.5l28.5 36.5t22 25.5q5 7 5 11q0 5 -3 8
l-28 18.5l-38.5 26.5t-34 26t-14.5 17q0 3 6.5 14l16 26l21 32t22.5 31t19.5 23.5t12.5 9.5q7 0 29.5 -14.5t46 -32.5t42 -34t18.5 -18q0 -3 -10.5 -18l-24 -34l-27 -37l-19.5 -26q-2 -2 -6 -7t-4 -10q0 -4 9 -10q8 -6 25 -17.5l34 -23.5t29.5 -23t12.5 -15z" />
    <glyph glyph-name="uni067B.fina" unicode="&#x67b;" horiz-adv-x="1498" arabic-form="final" 
d="M1566 103q0 -12 -1 -29.5t-6 -34t-14.5 -28t-26.5 -11.5h-40q-32 0 -58.5 4t-50 16.5t-44 36.5t-39.5 63q-44 -38 -117.5 -74t-168.5 -64.5t-207.5 -46t-234.5 -17.5q-114 0 -203 22.5t-150 63t-93 98t-32 128.5q0 61 18 117.5t40.5 99.5t43 69t24.5 26q1 0 6 -3t10 -7
t9 -8.5t4 -7.5q0 -4 -9.5 -18t-21.5 -37.5t-21.5 -55.5t-9.5 -71q0 -55 36.5 -93t98.5 -61.5t143.5 -34t171.5 -10.5q102 0 196.5 6.5t174.5 20t142 35t101 51.5q10 7 18.5 17l15.5 18t13.5 14t12.5 6q8 0 14.5 -6t11.5 -15l10.5 -19.5t12.5 -19.5q14 -17 45.5 -27.5
t86.5 -10.5h40q17 0 26.5 -11.5t14.5 -28t6 -33.5t1 -29zM770 -503q0 -8 -13.5 -29.5t-30.5 -44.5t-32.5 -41t-19.5 -18q-3 0 -23.5 12t-44 28l-43 30.5t-19.5 19.5q0 6 10.5 22.5t25 35.5l28.5 36.5t22 25.5q5 7 5 11q0 5 -3 8l-28 18.5l-38.5 26.5t-34 26t-14.5 17
q0 3 6.5 14l16 26l21 32t22.5 31t19.5 23.5t12.5 9.5q7 0 29.5 -14.5t46 -32.5t42 -34t18.5 -18q0 -3 -10.5 -18l-24 -34l-27 -37l-19.5 -26q-2 -2 -6 -7t-4 -10q0 -4 9 -10q8 -6 25 -17.5l34 -23.5t29.5 -23t12.5 -15z" />
    <glyph glyph-name="uni067C.init" unicode="&#x67c;" horiz-adv-x="439" 
d="M342 -43q0 -36 -12.5 -68t-35 -56t-52.5 -37.5t-65 -13.5q-54 0 -84.5 38t-30.5 121q0 32 11 62q-24 -3 -51 -3h-39q-23 0 -36.5 21.5t-13.5 82.5q0 30 4.5 50t12 31t16.5 15.5t17 4.5h39q24 0 54.5 1t60.5 4t55.5 7.5t39.5 12.5q19 11 27 23.5t8 20.5q0 19 -18.5 39
t-40 39l-40 36.5t-18.5 31.5q0 6 10 30t25 54.5t34 62.5t37 55q17 -26 34.5 -58.5t32 -68t23.5 -72t9 -69.5q0 -75 -24.5 -140.5t-69.5 -114.5q18 -9 33 -24.5t25.5 -35t16.5 -41t6 -41.5zM322 983q6 0 27 -14t44 -31.5t41 -34t18 -20.5t-6 -16t-15.5 -28t-21 -33.5t-22 -32
t-19 -24t-11.5 -9.5q-4 0 -23.5 14l-42.5 31l-60 46q-6 6 -13 6q-3 0 -8 -9l-41 -58q-16 -22 -31 -39.5t-20 -17.5q-2 0 -12.5 6.5t-25.5 17l-31 22.5l-30 23t-23 19.5t-9 11.5q0 4 6.5 16t16.5 28.5l21.5 34.5t22.5 32.5l19 24.5t10 10q7 0 27 -14.5l42 -31.5
q26 -20 55 -45q6 -7 11 -7q3 0 5.5 2t7.5 9l42 55l30.5 38.5t18.5 17.5zM264 -66q0 8 -9 19.5t-22.5 22.5t-28.5 18.5t-27 7.5q-25 0 -37 -16.5t-12 -34.5q0 -19 20.5 -33.5t51.5 -14.5q9 0 20 3t21 7.5t16.5 10t6.5 10.5z" />
    <glyph glyph-name="uni067C.medi" unicode="&#x67c;" horiz-adv-x="427" 
d="M389 -28q0 -36 -12.5 -68t-35 -56t-52.5 -37.5t-65 -13.5q-54 0 -84.5 38t-30.5 121q0 30 9 56q-39 -12 -93 -12h-37q-19 0 -30 6.5t-16.5 20t-7 32.5t-1.5 45q0 24 1.5 42.5t7 31.5t16.5 20t30 7h37q52 0 90.5 9.5t65.5 24.5t44.5 31.5t30 31.5l20.5 24.5t16 9.5
q6 0 13 -9t15 -46q3 -13 7.5 -26.5t14 -24.5t24 -18t36.5 -7h39q37 0 46 -26t9 -75t-9 -76.5t-46 -27.5h-39h-16q3 -14 3 -28zM317 697q6 0 27 -14t44 -31.5t41 -34t18 -20.5t-6 -16t-15.5 -28t-21 -33.5t-22 -32t-19 -24t-11.5 -9.5q-4 0 -23.5 14l-42.5 31l-60 46
q-6 6 -13 6q-3 0 -8 -9l-41 -58q-16 -22 -31 -39.5t-20 -17.5q-2 0 -12.5 6.5t-25.5 17l-31 22.5l-30 23t-23 19.5t-9 11.5q0 4 6.5 16t16.5 28.5l21.5 34.5t22.5 32.5l19 24.5t10 10q7 0 27 -14.5l42 -31.5q26 -20 55 -45q6 -7 11 -7q3 0 5.5 2t7.5 9l42 55l30.5 38.5
t18.5 17.5zM311 -51q0 8 -9 19.5t-22.5 22.5t-28.5 18.5t-27 7.5q-25 0 -37 -16.5t-12 -34.5q0 -19 20.5 -33.5t51.5 -14.5q9 0 20 3t21 7.5t16.5 10t6.5 10.5z" />
    <glyph glyph-name="uni067C.fina" unicode="&#x67c;" horiz-adv-x="1498" 
d="M733 -159q0 -36 -12.5 -68t-35 -56t-52.5 -37.5t-65 -13.5q-54 0 -84.5 38t-30.5 121q0 51 28 96q-96 7 -170.5 32t-126 65t-78 93.5t-26.5 118.5q0 61 18 117.5t40.5 99.5t43 69t24.5 26q1 0 6 -3t10 -7t9 -8.5t4 -7.5q0 -4 -9.5 -18t-21.5 -37.5t-21.5 -55.5t-9.5 -71
q0 -55 36.5 -93t98.5 -61.5t143.5 -34t171.5 -10.5q102 0 196.5 6.5t174.5 20t142 35t101 51.5q10 7 18.5 17l15.5 18t13.5 14t12.5 6q8 0 14.5 -6t11.5 -15l10.5 -19.5t12.5 -19.5q14 -17 45.5 -27.5t86.5 -10.5h40q17 0 26.5 -11.5t14.5 -28t6 -33.5t1 -29t-1 -29.5
t-6 -34t-14.5 -28t-26.5 -11.5h-40q-32 0 -58.5 4t-50 16.5t-44 36.5t-39.5 63q-37 -32 -95.5 -62.5t-132.5 -56.5t-162.5 -46t-185.5 -29q11 -20 17 -42t6 -43zM805 710q6 0 27 -14t44 -31.5t41 -34t18 -20.5t-6 -16t-15.5 -28t-21 -33.5t-22 -32t-19 -24t-11.5 -9.5
q-4 0 -23.5 14l-42.5 31l-60 46q-6 6 -13 6q-3 0 -8 -9l-41 -58q-16 -22 -31 -39.5t-20 -17.5q-2 0 -12.5 6.5t-25.5 17l-31 22.5l-30 23t-23 19.5t-9 11.5q0 4 6.5 16t16.5 28.5l21.5 34.5t22.5 32.5l19 24.5t10 10q7 0 27 -14.5l42 -31.5q26 -20 55 -45q6 -7 11 -7
q3 0 5.5 2t7.5 9l42 55l30.5 38.5t18.5 17.5zM655 -182q0 8 -9 19.5t-22.5 22.5t-28.5 18.5t-27 7.5q-25 0 -37 -16.5t-12 -34.5q0 -19 20.5 -33.5t51.5 -14.5q9 0 20 3t21 7.5t16.5 10t6.5 10.5z" />
    <glyph glyph-name="uni067D.init" unicode="&#x67d;" horiz-adv-x="439" 
d="M355 354q0 -72 -22.5 -136t-65.5 -112.5t-105 -77t-140 -28.5h-39q-23 0 -36.5 21.5t-13.5 82.5q0 30 4.5 50t12 31t16.5 15.5t17 4.5h39q24 0 54.5 1t60.5 4t55.5 7.5t39.5 12.5q19 11 27 23.5t8 20.5q0 19 -18.5 39t-40 39l-40 36.5t-18.5 31.5q0 6 10 30t25 54.5
t34 62.5t37 55q17 -26 34.5 -58.5t32 -68t23.5 -72t9 -69.5zM307 1228q6 0 27 -14t44 -32t41 -34t18 -20q0 -6 -13 -29t-29.5 -48.5t-32 -46t-20.5 -20.5q-4 0 -23.5 14.5l-42.5 31.5l-60 46q-7 5 -13 5q-3 0 -8 -8l-41 -58q-16 -22 -31 -39.5t-20 -17.5q-2 0 -12.5 6.5
t-25.5 17l-31 22.5l-30 23t-23 19.5t-9 11.5q0 4 6.5 16t16.5 28.5l21.5 34.5t22.5 32.5l19 24.5t10 10q7 0 27 -14.5l42 -31.5q26 -20 55 -45q6 -7 11 -7t13 10l42 56l30.5 38.5t18.5 17.5zM350 865q0 -6 -13 -29.5t-30 -49.5t-33.5 -46.5t-22.5 -20.5q-2 0 -13 6.5
t-25.5 16.5l-31 22.5l-30.5 23.5t-23 20t-9 12q0 4 6.5 16l16 28.5t21.5 34.5t23 32.5t19.5 24.5t11.5 10q6 0 27.5 -14t45 -32t42 -34.5t18.5 -20.5z" />
    <glyph glyph-name="uni067D.medi" unicode="&#x67d;" horiz-adv-x="427" 
d="M496 104q0 -49 -9 -76.5t-46 -27.5h-39q-28 0 -46.5 7t-38.5 24q-17 14 -32 37t-25 52q-18 -24 -38.5 -45.5t-48.5 -38t-64 -26.5t-84 -10h-37q-19 0 -30 6.5t-16.5 20t-7 32.5t-1.5 45q0 24 1.5 42.5t7 31.5t16.5 20t30 7h37q52 0 90.5 9.5t65.5 24.5t44.5 31.5t30 31.5
l20.5 24.5t16 9.5q6 0 13 -9t15 -46q3 -13 7.5 -26.5t14 -24.5t24 -18t36.5 -7h39q37 0 46 -26t9 -75zM319 937q6 0 27 -14t44 -32t41 -34t18 -20q0 -6 -13 -29t-29.5 -48.5t-32 -46t-20.5 -20.5q-4 0 -23.5 14.5l-42.5 31.5l-60 46q-7 5 -13 5q-3 0 -8 -8l-41 -58
q-16 -22 -31 -39.5t-20 -17.5q-2 0 -12.5 6.5t-25.5 17l-31 22.5l-30 23t-23 19.5t-9 11.5q0 4 6.5 16t16.5 28.5l21.5 34.5t22.5 32.5l19 24.5t10 10q7 0 27 -14.5l42 -31.5q26 -20 55 -45q6 -7 11 -7t13 10l42 56l30.5 38.5t18.5 17.5zM362 574q0 -6 -13 -29.5t-30 -49.5
t-33.5 -46.5t-22.5 -20.5q-2 0 -13 6.5t-25.5 16.5l-31 22.5l-30.5 23.5t-23 20t-9 12q0 4 6.5 16l16 28.5t21.5 34.5t23 32.5t19.5 24.5t11.5 10q6 0 27.5 -14t45 -32t42 -34.5t18.5 -20.5z" />
    <glyph glyph-name="uni067D.fina" unicode="&#x67d;" horiz-adv-x="1498" 
d="M1566 103q0 -12 -1 -29.5t-6 -34t-14.5 -28t-26.5 -11.5h-40q-32 0 -58.5 4t-50 16.5t-44 36.5t-39.5 63q-44 -38 -117.5 -74t-168.5 -64.5t-207.5 -46t-234.5 -17.5q-114 0 -203 22.5t-150 63t-93 98t-32 128.5q0 61 18 117.5t40.5 99.5t43 69t24.5 26q1 0 6 -3t10 -7
t9 -8.5t4 -7.5q0 -4 -9.5 -18t-21.5 -37.5t-21.5 -55.5t-9.5 -71q0 -55 36.5 -93t98.5 -61.5t143.5 -34t171.5 -10.5q102 0 196.5 6.5t174.5 20t142 35t101 51.5q10 7 18.5 17l15.5 18t13.5 14t12.5 6q8 0 14.5 -6t11.5 -15l10.5 -19.5t12.5 -19.5q14 -17 45.5 -27.5
t86.5 -10.5h40q17 0 26.5 -11.5t14.5 -28t6 -33.5t1 -29zM790 887q6 0 27 -14t44 -32t41 -34t18 -20q0 -6 -13 -29t-29.5 -48.5t-32 -46t-20.5 -20.5q-4 0 -23.5 14.5l-42.5 31.5l-60 46q-7 5 -13 5q-3 0 -8 -8l-41 -58q-16 -22 -31 -39.5t-20 -17.5q-2 0 -12.5 6.5
t-25.5 17l-31 22.5l-30 23t-23 19.5t-9 11.5q0 4 6.5 16t16.5 28.5l21.5 34.5t22.5 32.5l19 24.5t10 10q7 0 27 -14.5l42 -31.5q26 -20 55 -45q6 -7 11 -7t13 10l42 56l30.5 38.5t18.5 17.5zM833 524q0 -6 -13 -29.5t-30 -49.5t-33.5 -46.5t-22.5 -20.5q-2 0 -13 6.5
t-25.5 16.5l-31 22.5l-30.5 23.5t-23 20t-9 12q0 4 6.5 16l16 28.5t21.5 34.5t23 32.5t19.5 24.5t11.5 10q6 0 27.5 -14t45 -32t42 -34.5t18.5 -20.5z" />
    <glyph glyph-name="uni067E.init" unicode="&#x67e;" horiz-adv-x="439" arabic-form="initial" 
d="M355 354q0 -72 -22.5 -136t-65.5 -112.5t-105 -77t-140 -28.5h-39q-23 0 -36.5 21.5t-13.5 82.5q0 30 4.5 50t12 31t16.5 15.5t17 4.5h39q24 0 54.5 1t60.5 4t55.5 7.5t39.5 12.5q19 11 27 23.5t8 20.5q0 19 -18.5 39t-40 39l-40 36.5t-18.5 31.5q0 6 10 30t25 54.5
t34 62.5t37 55q17 -26 34.5 -58.5t32 -68t23.5 -72t9 -69.5zM285 -72q6 0 27 -14t44 -32t41 -34t18 -20q0 -6 -13 -29t-29.5 -48.5t-32 -46t-20.5 -20.5q-4 0 -23.5 14.5l-42.5 31.5l-60 46q-7 5 -13 5q-3 0 -8 -8l-41 -58q-16 -22 -31 -39.5t-20 -17.5q-2 0 -12.5 6.5
t-25.5 17l-31 22.5l-30 23t-23 19.5t-9 11.5q0 4 6.5 16t16.5 28.5l21.5 34.5t22.5 32.5l19 24.5t10 10q7 0 27 -14.5l42 -31.5q26 -20 55 -45q6 -7 11 -7t13 10l42 56l30.5 38.5t18.5 17.5zM328 -435q0 -6 -13 -29.5t-30 -49.5t-33.5 -46.5t-22.5 -20.5q-2 0 -13 6.5
t-25.5 16.5l-31 22.5l-30.5 23.5t-23 20t-9 12q0 4 6.5 16l16 28.5t21.5 34.5t23 32.5t19.5 24.5t11.5 10q6 0 27.5 -14t45 -32t42 -34.5t18.5 -20.5z" />
    <glyph glyph-name="uni067E.medi" unicode="&#x67e;" horiz-adv-x="427" arabic-form="medial" 
d="M496 104q0 -49 -9 -76.5t-46 -27.5h-39q-28 0 -46.5 7t-38.5 24q-17 14 -32 37t-25 52q-18 -24 -38.5 -45.5t-48.5 -38t-64 -26.5t-84 -10h-37q-19 0 -30 6.5t-16.5 20t-7 32.5t-1.5 45q0 24 1.5 42.5t7 31.5t16.5 20t30 7h37q52 0 90.5 9.5t65.5 24.5t44.5 31.5t30 31.5
l20.5 24.5t16 9.5q6 0 13 -9t15 -46q3 -13 7.5 -26.5t14 -24.5t24 -18t36.5 -7h39q37 0 46 -26t9 -75zM322 -70q6 0 27 -14t44 -32t41 -34t18 -20q0 -6 -13 -29t-29.5 -48.5t-32 -46t-20.5 -20.5q-4 0 -23.5 14.5l-42.5 31.5l-60 46q-7 5 -13 5q-3 0 -8 -8l-41 -58
q-16 -22 -31 -39.5t-20 -17.5q-2 0 -12.5 6.5t-25.5 17l-31 22.5l-30 23t-23 19.5t-9 11.5q0 4 6.5 16t16.5 28.5l21.5 34.5t22.5 32.5l19 24.5t10 10q7 0 27 -14.5l42 -31.5q26 -20 55 -45q6 -7 11 -7t13 10l42 56l30.5 38.5t18.5 17.5zM365 -433q0 -6 -13 -29.5t-30 -49.5
t-33.5 -46.5t-22.5 -20.5q-2 0 -13 6.5t-25.5 16.5l-31 22.5l-30.5 23.5t-23 20t-9 12q0 4 6.5 16l16 28.5t21.5 34.5t23 32.5t19.5 24.5t11.5 10q6 0 27.5 -14t45 -32t42 -34.5t18.5 -20.5z" />
    <glyph glyph-name="uni067E.fina" unicode="&#x67e;" horiz-adv-x="1498" arabic-form="final" 
d="M1566 103q0 -12 -1 -29.5t-6 -34t-14.5 -28t-26.5 -11.5h-40q-32 0 -58.5 4t-50 16.5t-44 36.5t-39.5 63q-44 -38 -117.5 -74t-168.5 -64.5t-207.5 -46t-234.5 -17.5q-114 0 -203 22.5t-150 63t-93 98t-32 128.5q0 61 18 117.5t40.5 99.5t43 69t24.5 26q1 0 6 -3t10 -7
t9 -8.5t4 -7.5q0 -4 -9.5 -18t-21.5 -37.5t-21.5 -55.5t-9.5 -71q0 -55 36.5 -93t98.5 -61.5t143.5 -34t171.5 -10.5q102 0 196.5 6.5t174.5 20t142 35t101 51.5q10 7 18.5 17l15.5 18t13.5 14t12.5 6q8 0 14.5 -6t11.5 -15l10.5 -19.5t12.5 -19.5q14 -17 45.5 -27.5
t86.5 -10.5h40q17 0 26.5 -11.5t14.5 -28t6 -33.5t1 -29zM762 -176q6 0 27 -14t44 -32t41 -34t18 -20q0 -6 -13 -29t-29.5 -48.5t-32 -46t-20.5 -20.5q-4 0 -23.5 14.5l-42.5 31.5l-60 46q-7 5 -13 5q-3 0 -8 -8l-41 -58q-16 -22 -31 -39.5t-20 -17.5q-2 0 -12.5 6.5
t-25.5 17l-31 22.5l-30 23t-23 19.5t-9 11.5q0 4 6.5 16t16.5 28.5l21.5 34.5t22.5 32.5l19 24.5t10 10q7 0 27 -14.5l42 -31.5q26 -20 55 -45q6 -7 11 -7t13 10l42 56l30.5 38.5t18.5 17.5zM805 -539q0 -6 -13 -29.5t-30 -49.5t-33.5 -46.5t-22.5 -20.5q-2 0 -13 6.5
t-25.5 16.5l-31 22.5l-30.5 23.5t-23 20t-9 12q0 4 6.5 16l16 28.5t21.5 34.5t23 32.5t19.5 24.5t11.5 10q6 0 27.5 -14t45 -32t42 -34.5t18.5 -20.5z" />
    <glyph glyph-name="uni067F.init" unicode="&#x67f;" horiz-adv-x="439" arabic-form="initial" 
d="M355 354q0 -72 -22.5 -136t-65.5 -112.5t-105 -77t-140 -28.5h-39q-23 0 -36.5 21.5t-13.5 82.5q0 30 4.5 50t12 31t16.5 15.5t17 4.5h39q24 0 54.5 1t60.5 4t55.5 7.5t39.5 12.5q19 11 27 23.5t8 20.5q0 19 -18.5 39t-40 39l-40 36.5t-18.5 31.5q0 6 10 30t25 54.5
t34 62.5t37 55q17 -26 34.5 -58.5t32 -68t23.5 -72t9 -69.5zM304 1227q6 0 27 -14t44 -31.5t41 -33.5t18 -20q0 -6 -12.5 -29.5t-29 -49t-32 -45.5t-21.5 -20q-3 0 -23 14l-43 31l-59 46q-8 6 -13 6q-2 0 -9 -9l-41 -58q-16 -22 -30.5 -39.5t-19.5 -17.5q-2 0 -12.5 6.5
t-25.5 17t-31 23l-30 23.5t-23 19t-9 11q0 4 6.5 16l16 28.5t21.5 34.5l22.5 33t18.5 25t11 10q7 0 27.5 -14.5t41.5 -31.5q25 -20 54 -46q7 -6 12 -6q4 0 13 10q24 30 42 55l30 38.5t18 17.5zM331 976q6 0 27 -14t44 -32t41 -34t18 -20q0 -6 -13 -29t-29.5 -48.5t-32 -46
t-20.5 -20.5q-3 0 -23 14.5l-43 31.5l-59 46q-8 5 -14 5q-2 0 -3.5 -2.5t-4.5 -5.5l-41 -58q-16 -22 -30.5 -39.5t-19.5 -17.5q-4 0 -25 14t-44.5 31.5t-42.5 33.5t-19 20q0 6 13.5 29.5t30.5 50t32.5 47t18.5 20.5q7 0 27 -14.5l42 -31.5q26 -20 55 -45q7 -7 11 -7
q5 0 14 10l41 56l30.5 38.5t18.5 17.5z" />
    <glyph glyph-name="uni067F.medi" unicode="&#x67f;" horiz-adv-x="427" arabic-form="medial" 
d="M496 104q0 -49 -9 -76.5t-46 -27.5h-39q-28 0 -46.5 7t-38.5 24q-17 14 -32 37t-25 52q-18 -24 -38.5 -45.5t-48.5 -38t-64 -26.5t-84 -10h-37q-19 0 -30 6.5t-16.5 20t-7 32.5t-1.5 45q0 24 1.5 42.5t7 31.5t16.5 20t30 7h37q52 0 90.5 9.5t65.5 24.5t44.5 31.5t30 31.5
l20.5 24.5t16 9.5q6 0 13 -9t15 -46q3 -13 7.5 -26.5t14 -24.5t24 -18t36.5 -7h39q37 0 46 -26t9 -75zM305 940q6 0 27 -14t44 -31.5t41 -33.5t18 -20q0 -6 -12.5 -29.5t-29 -49t-32 -45.5t-21.5 -20q-3 0 -23 14l-43 31l-59 46q-8 6 -13 6q-2 0 -9 -9l-41 -58
q-16 -22 -30.5 -39.5t-19.5 -17.5q-2 0 -12.5 6.5t-25.5 17t-31 23l-30 23.5t-23 19t-9 11q0 4 6.5 16l16 28.5t21.5 34.5l22.5 33t18.5 25t11 10q7 0 27.5 -14.5t41.5 -31.5q25 -20 54 -46q7 -6 12 -6q4 0 13 10q24 30 42 55l30 38.5t18 17.5zM332 689q6 0 27 -14t44 -32
t41 -34t18 -20q0 -6 -13 -29t-29.5 -48.5t-32 -46t-20.5 -20.5q-3 0 -23 14.5l-43 31.5l-59 46q-8 5 -14 5q-2 0 -3.5 -2.5t-4.5 -5.5l-41 -58q-16 -22 -30.5 -39.5t-19.5 -17.5q-4 0 -25 14t-44.5 31.5t-42.5 33.5t-19 20q0 6 13.5 29.5t30.5 50t32.5 47t18.5 20.5
q7 0 27 -14.5l42 -31.5q26 -20 55 -45q7 -7 11 -7q5 0 14 10l41 56l30.5 38.5t18.5 17.5z" />
    <glyph glyph-name="uni067F.fina" unicode="&#x67f;" horiz-adv-x="1498" arabic-form="final" 
d="M1566 103q0 -12 -1 -29.5t-6 -34t-14.5 -28t-26.5 -11.5h-40q-32 0 -58.5 4t-50 16.5t-44 36.5t-39.5 63q-44 -38 -117.5 -74t-168.5 -64.5t-207.5 -46t-234.5 -17.5q-114 0 -203 22.5t-150 63t-93 98t-32 128.5q0 61 18 117.5t40.5 99.5t43 69t24.5 26q1 0 6 -3t10 -7
t9 -8.5t4 -7.5q0 -4 -9.5 -18t-21.5 -37.5t-21.5 -55.5t-9.5 -71q0 -55 36.5 -93t98.5 -61.5t143.5 -34t171.5 -10.5q102 0 196.5 6.5t174.5 20t142 35t101 51.5q10 7 18.5 17l15.5 18t13.5 14t12.5 6q8 0 14.5 -6t11.5 -15l10.5 -19.5t12.5 -19.5q14 -17 45.5 -27.5
t86.5 -10.5h40q17 0 26.5 -11.5t14.5 -28t6 -33.5t1 -29zM804 925q6 0 27 -14t44 -31.5t41 -33.5t18 -20q0 -6 -12.5 -29.5t-29 -49t-32 -45.5t-21.5 -20q-3 0 -23 14l-43 31l-59 46q-8 6 -13 6q-2 0 -9 -9l-41 -58q-16 -22 -30.5 -39.5t-19.5 -17.5q-2 0 -12.5 6.5
t-25.5 17t-31 23l-30 23.5t-23 19t-9 11q0 4 6.5 16l16 28.5t21.5 34.5l22.5 33t18.5 25t11 10q7 0 27.5 -14.5t41.5 -31.5q25 -20 54 -46q7 -6 12 -6q4 0 13 10q24 30 42 55l30 38.5t18 17.5zM831 674q6 0 27 -14t44 -32t41 -34t18 -20q0 -6 -13 -29t-29.5 -48.5t-32 -46
t-20.5 -20.5q-3 0 -23 14.5l-43 31.5l-59 46q-8 5 -14 5q-2 0 -3.5 -2.5t-4.5 -5.5l-41 -58q-16 -22 -30.5 -39.5t-19.5 -17.5q-4 0 -25 14t-44.5 31.5t-42.5 33.5t-19 20q0 6 13.5 29.5t30.5 50t32.5 47t18.5 20.5q7 0 27 -14.5l42 -31.5q26 -20 55 -45q7 -7 11 -7
q5 0 14 10l41 56l30.5 38.5t18.5 17.5z" />
    <glyph glyph-name="uni0680.init" unicode="&#x680;" horiz-adv-x="439" arabic-form="initial" 
d="M355 354q0 -72 -22.5 -136t-65.5 -112.5t-105 -77t-140 -28.5h-39q-23 0 -36.5 21.5t-13.5 82.5q0 30 4.5 50t12 31t16.5 15.5t17 4.5h39q24 0 54.5 1t60.5 4t55.5 7.5t39.5 12.5q19 11 27 23.5t8 20.5q0 19 -18.5 39t-40 39l-40 36.5t-18.5 31.5q0 6 10 30t25 54.5
t34 62.5t37 55q17 -26 34.5 -58.5t32 -68t23.5 -72t9 -69.5zM291 -102q6 0 27 -14t44 -31.5t41 -33.5t18 -20q0 -6 -12.5 -29.5t-29 -49t-32 -45.5t-21.5 -20q-3 0 -23 14l-43 31l-59 46q-8 6 -13 6q-2 0 -9 -9l-41 -58q-16 -22 -30.5 -39.5t-19.5 -17.5q-2 0 -12.5 6.5
t-25.5 17t-31 23l-30 23.5t-23 19t-9 11q0 4 6.5 16l16 28.5t21.5 34.5l22.5 33t18.5 25t11 10q7 0 27.5 -14.5t41.5 -31.5q25 -20 54 -46q7 -6 12 -6q4 0 13 10q24 30 42 55l30 38.5t18 17.5zM318 -353q6 0 27 -14t44 -32t41 -34t18 -20q0 -6 -13 -29t-29.5 -48.5t-32 -46
t-20.5 -20.5q-3 0 -23 14.5l-43 31.5l-59 46q-8 5 -14 5q-2 0 -3.5 -2.5t-4.5 -5.5l-41 -58q-16 -22 -30.5 -39.5t-19.5 -17.5q-4 0 -25 14t-44.5 31.5t-42.5 33.5t-19 20q0 6 13.5 29.5t30.5 50t32.5 47t18.5 20.5q7 0 27 -14.5l42 -31.5q26 -20 55 -45q7 -7 11 -7
q5 0 14 10l41 56l30.5 38.5t18.5 17.5z" />
    <glyph glyph-name="uni0680.medi" unicode="&#x680;" horiz-adv-x="427" arabic-form="medial" 
d="M496 104q0 -49 -9 -76.5t-46 -27.5h-39q-28 0 -46.5 7t-38.5 24q-17 14 -32 37t-25 52q-18 -24 -38.5 -45.5t-48.5 -38t-64 -26.5t-84 -10h-37q-19 0 -30 6.5t-16.5 20t-7 32.5t-1.5 45q0 24 1.5 42.5t7 31.5t16.5 20t30 7h37q52 0 90.5 9.5t65.5 24.5t44.5 31.5t30 31.5
l20.5 24.5t16 9.5q6 0 13 -9t15 -46q3 -13 7.5 -26.5t14 -24.5t24 -18t36.5 -7h39q37 0 46 -26t9 -75zM304 -70q6 0 27 -14t44 -31.5t41 -33.5t18 -20q0 -6 -12.5 -29.5t-29 -49t-32 -45.5t-21.5 -20q-3 0 -23 14l-43 31l-59 46q-8 6 -13 6q-2 0 -9 -9l-41 -58
q-16 -22 -30.5 -39.5t-19.5 -17.5q-2 0 -12.5 6.5t-25.5 17t-31 23l-30 23.5t-23 19t-9 11q0 4 6.5 16l16 28.5t21.5 34.5l22.5 33t18.5 25t11 10q7 0 27.5 -14.5t41.5 -31.5q25 -20 54 -46q7 -6 12 -6q4 0 13 10q24 30 42 55l30 38.5t18 17.5zM331 -321q6 0 27 -14t44 -32
t41 -34t18 -20q0 -6 -13 -29t-29.5 -48.5t-32 -46t-20.5 -20.5q-3 0 -23 14.5l-43 31.5l-59 46q-8 5 -14 5q-2 0 -3.5 -2.5t-4.5 -5.5l-41 -58q-16 -22 -30.5 -39.5t-19.5 -17.5q-4 0 -25 14t-44.5 31.5t-42.5 33.5t-19 20q0 6 13.5 29.5t30.5 50t32.5 47t18.5 20.5
q7 0 27 -14.5l42 -31.5q26 -20 55 -45q7 -7 11 -7q5 0 14 10l41 56l30.5 38.5t18.5 17.5z" />
    <glyph glyph-name="uni0680.fina" unicode="&#x680;" horiz-adv-x="1498" arabic-form="final" 
d="M1566 103q0 -12 -1 -29.5t-6 -34t-14.5 -28t-26.5 -11.5h-40q-32 0 -58.5 4t-50 16.5t-44 36.5t-39.5 63q-44 -38 -117.5 -74t-168.5 -64.5t-207.5 -46t-234.5 -17.5q-114 0 -203 22.5t-150 63t-93 98t-32 128.5q0 61 18 117.5t40.5 99.5t43 69t24.5 26q1 0 6 -3t10 -7
t9 -8.5t4 -7.5q0 -4 -9.5 -18t-21.5 -37.5t-21.5 -55.5t-9.5 -71q0 -55 36.5 -93t98.5 -61.5t143.5 -34t171.5 -10.5q102 0 196.5 6.5t174.5 20t142 35t101 51.5q10 7 18.5 17l15.5 18t13.5 14t12.5 6q8 0 14.5 -6t11.5 -15l10.5 -19.5t12.5 -19.5q14 -17 45.5 -27.5
t86.5 -10.5h40q17 0 26.5 -11.5t14.5 -28t6 -33.5t1 -29zM734 -183q6 0 27 -14t44 -31.5t41 -33.5t18 -20q0 -6 -12.5 -29.5t-29 -49t-32 -45.5t-21.5 -20q-3 0 -23 14l-43 31l-59 46q-8 6 -13 6q-2 0 -9 -9l-41 -58q-16 -22 -30.5 -39.5t-19.5 -17.5q-2 0 -12.5 6.5
t-25.5 17t-31 23l-30 23.5t-23 19t-9 11q0 4 6.5 16l16 28.5t21.5 34.5l22.5 33t18.5 25t11 10q7 0 27.5 -14.5t41.5 -31.5q25 -20 54 -46q7 -6 12 -6q4 0 13 10q24 30 42 55l30 38.5t18 17.5zM761 -434q6 0 27 -14t44 -32t41 -34t18 -20q0 -6 -13 -29t-29.5 -48.5t-32 -46
t-20.5 -20.5q-3 0 -23 14.5l-43 31.5l-59 46q-8 5 -14 5q-2 0 -3.5 -2.5t-4.5 -5.5l-41 -58q-16 -22 -30.5 -39.5t-19.5 -17.5q-4 0 -25 14t-44.5 31.5t-42.5 33.5t-19 20q0 6 13.5 29.5t30.5 50t32.5 47t18.5 20.5q7 0 27 -14.5l42 -31.5q26 -20 55 -45q7 -7 11 -7
q5 0 14 10l41 56l30.5 38.5t18.5 17.5z" />
    <glyph glyph-name="uni062C.init" unicode="&#x62c;" horiz-adv-x="1120" arabic-form="initial" 
d="M1038 445q0 -3 -3 -23.5t-7.5 -45.5l-8.5 -47t-6 -28q-1 -3 -27.5 -5.5t-72 -4t-106 -2t-129.5 -0.5q-47 0 -88.5 -15.5t-81.5 -40t-79 -55l-80 -60.5q-33 -24 -69 -45t-76.5 -37.5t-84.5 -26t-92 -9.5h-39q-19 0 -30 11.5t-16.5 28t-7 34t-1.5 29.5t1.5 29t7 33.5
t16.5 28t30 11.5h37q77 0 157 8.5t149 36.5q19 8 40 18.5l42 20.5t42 18.5t40 12.5q-21 8 -54.5 24t-73.5 31.5t-83.5 27t-83.5 11.5q-21 0 -41.5 -6.5t-37 -15t-28 -15t-12.5 -6.5q-2 0 -7 2t-10 4.5t-9.5 5t-4.5 4.5q0 20 7 44.5t19.5 49.5t30.5 47.5t40 37.5q25 17 55 29
t78 12q31 0 72.5 -15t85.5 -35l88 -39.5t79 -27.5q54 -13 117.5 -23t141.5 -14q24 -1 54 -2t57 -1.5t45 -2t18 -2.5zM654 -162q0 -4 -6.5 -16.5t-16.5 -29.5t-22.5 -36t-24 -34.5t-21.5 -26t-14 -10.5q-3 0 -25.5 14.5t-47.5 33t-45.5 36t-20.5 22.5q0 4 6.5 17t17 30l23 36
t24 34.5t20.5 26t13 10.5q6 0 28.5 -15t47.5 -33.5t44.5 -36t19.5 -22.5z" />
    <glyph glyph-name="uni062C.medi" unicode="&#x62c;" horiz-adv-x="1095" arabic-form="medial" 
d="M1162 103q0 -12 -1.5 -29.5t-7 -34t-16.5 -28t-30 -11.5h-37q-117 0 -206.5 11t-134.5 42q-59 40 -59 124q0 10 2 24t6 29.5t8.5 31t9.5 27.5h-18q-47 0 -88.5 -15.5t-81.5 -40t-79 -55l-80 -60.5q-33 -24 -69 -45t-76.5 -37.5t-85 -26t-93.5 -9.5h-37q-19 0 -30 11.5
t-16.5 28t-7 34t-1.5 29.5t1.5 29t7 33.5t16.5 28t30 11.5h37q100 0 173.5 10.5t132.5 34.5q18 7 38.5 17.5l42 21t43 19t40.5 12.5q-21 8 -54.5 24t-73.5 31.5t-83.5 27t-83.5 11.5q-21 0 -41.5 -6.5t-37 -15t-28 -15t-12.5 -6.5q-2 0 -7.5 2t-10.5 4.5t-9 5t-4 4.5
q0 20 7 44.5t19.5 49.5t30.5 47.5t40 37.5q25 17 55 29t78 12q31 0 72.5 -15t85.5 -35l88 -39.5t79 -27.5q81 -19 192 -31t230 -12q5 0 7.5 -4.5t2.5 -9.5q0 -2 -3 -20.5t-7 -41l-8 -43.5t-6 -27q-1 -3 -26.5 -6t-62 -4.5t-78.5 -2.5t-77 -1q-1 -2 -1 -6v-7q0 -14 11 -25
t28 -19q22 -9 56 -14.5t71 -7.5t73 -2.5t63 -0.5h37q19 0 30 -11.5t16.5 -28t7 -33.5t1.5 -29zM664 -182q0 -4 -6.5 -16.5t-16.5 -29.5t-22.5 -36t-24 -34.5t-21.5 -26t-14 -10.5q-3 0 -25.5 14.5t-47.5 33t-45.5 36t-20.5 22.5q0 4 6.5 17t17 30l23 36t24 34.5t20.5 26
t13 10.5q6 0 28.5 -15t47.5 -33.5t44.5 -36t19.5 -22.5z" />
    <glyph glyph-name="uni062C.fina" unicode="&#x62c;" horiz-adv-x="1112" arabic-form="final" 
d="M1101 -593q0 -5 -22.5 -17.5t-58 -29.5t-79 -35.5l-84.5 -35t-75.5 -28.5t-51.5 -16q-40 -9 -70.5 -10.5t-47.5 -1.5q-104 0 -205.5 26.5t-182 83.5t-130 146.5t-49.5 214.5q0 99 35.5 185.5t94.5 159t134 131t155 101.5q-54 17 -100.5 23t-84.5 6t-67.5 -4.5t-51 -10
t-34.5 -10t-19 -4.5q-2 0 -11 6.5t-9 11.5q0 13 4 34.5t8.5 43.5t8.5 39.5t5 21.5q1 5 21.5 17.5t52 25t70 22.5t76.5 10q69 0 116.5 -7.5t91 -16.5t91 -16.5t117.5 -7.5q16 0 41.5 1t53 2.5t55 2.5t47.5 1q17 0 28 -1.5t11 -3.5t-4.5 -13l-11 -26.5l-14.5 -33.5t-15.5 -33
t-13 -25t-6.5 -10q-10 -2 -27 -4.5l-37 -5.5t-41 -6.5l-39 -6.5q1 -26 11.5 -44.5t43 -30.5t93.5 -17.5t163 -5.5h37q11 0 21 -2t17.5 -12t12 -29.5t4.5 -54.5q0 -63 -16 -85t-39 -22h-117q-76 0 -133.5 2t-103.5 16q-39 11 -60 43t-21 89q0 23 6.5 59t14.5 73
q-120 -31 -224 -81.5t-180 -115.5t-119.5 -143t-43.5 -164q0 -95 45.5 -163t132.5 -112t214 -64.5t290 -20.5q54 0 100 3.5t80.5 8t56.5 8.5t28 4q1 0 3 -5t4 -11.5t3 -12t1 -6.5zM690 -177q0 -4 -6.5 -16.5t-16.5 -29.5t-22.5 -36t-24 -34.5t-21.5 -26t-14 -10.5
q-3 0 -25.5 14.5t-47.5 33t-45.5 36t-20.5 22.5q0 4 6.5 17t17 30l23 36t24 34.5t20.5 26t13 10.5q6 0 28.5 -15t47.5 -33.5t44.5 -36t19.5 -22.5z" />
    <glyph glyph-name="uni062D.init" unicode="&#x62d;" horiz-adv-x="1120" arabic-form="initial" 
d="M1038 445q0 -3 -3 -23.5t-7.5 -45.5l-8.5 -47t-6 -28q-1 -3 -27.5 -5.5t-72 -4t-106 -2t-129.5 -0.5q-47 0 -88.5 -15.5t-81.5 -40t-79 -55l-80 -60.5q-33 -24 -69 -45t-76.5 -37.5t-84.5 -26t-92 -9.5h-39q-19 0 -30 11.5t-16.5 28t-7 34t-1.5 29.5t1.5 29t7 33.5
t16.5 28t30 11.5h37q77 0 157 8.5t149 36.5q19 8 40 18.5l42 20.5t42 18.5t40 12.5q-21 8 -54.5 24t-73.5 31.5t-83.5 27t-83.5 11.5q-21 0 -41.5 -6.5t-37 -15t-28 -15t-12.5 -6.5q-2 0 -7 2t-10 4.5t-9.5 5t-4.5 4.5q0 20 7 44.5t19.5 49.5t30.5 47.5t40 37.5q25 17 55 29
t78 12q31 0 72.5 -15t85.5 -35l88 -39.5t79 -27.5q54 -13 117.5 -23t141.5 -14q24 -1 54 -2t57 -1.5t45 -2t18 -2.5z" />
    <glyph glyph-name="uni062D.medi" unicode="&#x62d;" horiz-adv-x="1095" arabic-form="medial" 
d="M1162 103q0 -12 -1.5 -29.5t-7 -34t-16.5 -28t-30 -11.5h-37q-117 0 -206.5 11t-134.5 42q-59 40 -59 124q0 10 2 24t6 29.5t8.5 31t9.5 27.5h-18q-47 0 -88.5 -15.5t-81.5 -40t-79 -55l-80 -60.5q-33 -24 -69 -45t-76.5 -37.5t-85 -26t-93.5 -9.5h-37q-19 0 -30 11.5
t-16.5 28t-7 34t-1.5 29.5t1.5 29t7 33.5t16.5 28t30 11.5h37q100 0 173.5 10.5t132.5 34.5q18 7 38.5 17.5l42 21t43 19t40.5 12.5q-21 8 -54.5 24t-73.5 31.5t-83.5 27t-83.5 11.5q-21 0 -41.5 -6.5t-37 -15t-28 -15t-12.5 -6.5q-2 0 -7.5 2t-10.5 4.5t-9 5t-4 4.5
q0 20 7 44.5t19.5 49.5t30.5 47.5t40 37.5q25 17 55 29t78 12q31 0 72.5 -15t85.5 -35l88 -39.5t79 -27.5q81 -19 192 -31t230 -12q5 0 7.5 -4.5t2.5 -9.5q0 -2 -3 -20.5t-7 -41l-8 -43.5t-6 -27q-1 -3 -26.5 -6t-62 -4.5t-78.5 -2.5t-77 -1q-1 -2 -1 -6v-7q0 -14 11 -25
t28 -19q22 -9 56 -14.5t71 -7.5t73 -2.5t63 -0.5h37q19 0 30 -11.5t16.5 -28t7 -33.5t1.5 -29z" />
    <glyph glyph-name="uni062D.fina" unicode="&#x62d;" horiz-adv-x="1112" arabic-form="final" 
d="M1101 -593q0 -5 -22.5 -17.5t-58 -29.5t-79 -35.5l-84.5 -35t-75.5 -28.5t-51.5 -16q-40 -9 -70.5 -10.5t-47.5 -1.5q-104 0 -205.5 26.5t-182 83.5t-130 146.5t-49.5 214.5q0 99 35.5 185.5t94.5 159t134 131t155 101.5q-54 17 -100.5 23t-84.5 6t-67.5 -4.5t-51 -10
t-34.5 -10t-19 -4.5q-2 0 -11 6.5t-9 11.5q0 13 4 34.5t8.5 43.5t8.5 39.5t5 21.5q1 5 21.5 17.5t52 25t70 22.5t76.5 10q69 0 116.5 -7.5t91 -16.5t91 -16.5t117.5 -7.5q16 0 41.5 1t53 2.5t55 2.5t47.5 1q17 0 28 -1.5t11 -3.5t-4.5 -13l-11 -26.5l-14.5 -33.5t-15.5 -33
t-13 -25t-6.5 -10q-10 -2 -27 -4.5l-37 -5.5t-41 -6.5l-39 -6.5q1 -26 11.5 -44.5t43 -30.5t93.5 -17.5t163 -5.5h37q11 0 21 -2t17.5 -12t12 -29.5t4.5 -54.5q0 -63 -16 -85t-39 -22h-117q-76 0 -133.5 2t-103.5 16q-39 11 -60 43t-21 89q0 23 6.5 59t14.5 73
q-120 -31 -224 -81.5t-180 -115.5t-119.5 -143t-43.5 -164q0 -95 45.5 -163t132.5 -112t214 -64.5t290 -20.5q54 0 100 3.5t80.5 8t56.5 8.5t28 4q1 0 3 -5t4 -11.5t3 -12t1 -6.5z" />
    <glyph glyph-name="uni062E.init" unicode="&#x62e;" horiz-adv-x="1120" arabic-form="initial" 
d="M1038 445q0 -3 -3 -23.5t-7.5 -45.5l-8.5 -47t-6 -28q-1 -3 -27.5 -5.5t-72 -4t-106 -2t-129.5 -0.5q-47 0 -88.5 -15.5t-81.5 -40t-79 -55l-80 -60.5q-33 -24 -69 -45t-76.5 -37.5t-84.5 -26t-92 -9.5h-39q-19 0 -30 11.5t-16.5 28t-7 34t-1.5 29.5t1.5 29t7 33.5
t16.5 28t30 11.5h37q77 0 157 8.5t149 36.5q19 8 40 18.5l42 20.5t42 18.5t40 12.5q-21 8 -54.5 24t-73.5 31.5t-83.5 27t-83.5 11.5q-21 0 -41.5 -6.5t-37 -15t-28 -15t-12.5 -6.5q-2 0 -7 2t-10 4.5t-9.5 5t-4.5 4.5q0 20 7 44.5t19.5 49.5t30.5 47.5t40 37.5q25 17 55 29
t78 12q31 0 72.5 -15t85.5 -35l88 -39.5t79 -27.5q54 -13 117.5 -23t141.5 -14q24 -1 54 -2t57 -1.5t45 -2t18 -2.5zM654 865q0 -4 -6.5 -16.5t-16.5 -29.5t-22.5 -36t-24 -34.5t-21.5 -26t-14 -10.5q-3 0 -25.5 14.5t-47.5 33t-45.5 36t-20.5 22.5q0 4 6.5 17t17 30l23 36
t24 34.5t20.5 26t13 10.5q6 0 28.5 -15t47.5 -33.5t44.5 -36t19.5 -22.5z" />
    <glyph glyph-name="uni062E.medi" unicode="&#x62e;" horiz-adv-x="1095" arabic-form="medial" 
d="M1162 103q0 -12 -1.5 -29.5t-7 -34t-16.5 -28t-30 -11.5h-37q-117 0 -206.5 11t-134.5 42q-59 40 -59 124q0 10 2 24t6 29.5t8.5 31t9.5 27.5h-18q-47 0 -88.5 -15.5t-81.5 -40t-79 -55l-80 -60.5q-33 -24 -69 -45t-76.5 -37.5t-85 -26t-93.5 -9.5h-37q-19 0 -30 11.5
t-16.5 28t-7 34t-1.5 29.5t1.5 29t7 33.5t16.5 28t30 11.5h37q100 0 173.5 10.5t132.5 34.5q18 7 38.5 17.5l42 21t43 19t40.5 12.5q-21 8 -54.5 24t-73.5 31.5t-83.5 27t-83.5 11.5q-21 0 -41.5 -6.5t-37 -15t-28 -15t-12.5 -6.5q-2 0 -7.5 2t-10.5 4.5t-9 5t-4 4.5
q0 20 7 44.5t19.5 49.5t30.5 47.5t40 37.5q25 17 55 29t78 12q31 0 72.5 -15t85.5 -35l88 -39.5t79 -27.5q81 -19 192 -31t230 -12q5 0 7.5 -4.5t2.5 -9.5q0 -2 -3 -20.5t-7 -41l-8 -43.5t-6 -27q-1 -3 -26.5 -6t-62 -4.5t-78.5 -2.5t-77 -1q-1 -2 -1 -6v-7q0 -14 11 -25
t28 -19q22 -9 56 -14.5t71 -7.5t73 -2.5t63 -0.5h37q19 0 30 -11.5t16.5 -28t7 -33.5t1.5 -29zM676 840q0 -4 -6.5 -16.5t-16.5 -29.5t-22.5 -36t-24 -34.5t-21.5 -26t-14 -10.5q-3 0 -25.5 14.5t-47.5 33t-45.5 36t-20.5 22.5q0 4 6.5 17t17 30l23 36t24 34.5t20.5 26
t13 10.5q6 0 28.5 -15t47.5 -33.5t44.5 -36t19.5 -22.5z" />
    <glyph glyph-name="uni062E.fina" unicode="&#x62e;" horiz-adv-x="1112" arabic-form="final" 
d="M1101 -593q0 -5 -22.5 -17.5t-58 -29.5t-79 -35.5l-84.5 -35t-75.5 -28.5t-51.5 -16q-40 -9 -70.5 -10.5t-47.5 -1.5q-104 0 -205.5 26.5t-182 83.5t-130 146.5t-49.5 214.5q0 99 35.5 185.5t94.5 159t134 131t155 101.5q-54 17 -100.5 23t-84.5 6t-67.5 -4.5t-51 -10
t-34.5 -10t-19 -4.5q-2 0 -11 6.5t-9 11.5q0 13 4 34.5t8.5 43.5t8.5 39.5t5 21.5q1 5 21.5 17.5t52 25t70 22.5t76.5 10q69 0 116.5 -7.5t91 -16.5t91 -16.5t117.5 -7.5q16 0 41.5 1t53 2.5t55 2.5t47.5 1q17 0 28 -1.5t11 -3.5t-4.5 -13l-11 -26.5l-14.5 -33.5t-15.5 -33
t-13 -25t-6.5 -10q-10 -2 -27 -4.5l-37 -5.5t-41 -6.5l-39 -6.5q1 -26 11.5 -44.5t43 -30.5t93.5 -17.5t163 -5.5h37q11 0 21 -2t17.5 -12t12 -29.5t4.5 -54.5q0 -63 -16 -85t-39 -22h-117q-76 0 -133.5 2t-103.5 16q-39 11 -60 43t-21 89q0 23 6.5 59t14.5 73
q-120 -31 -224 -81.5t-180 -115.5t-119.5 -143t-43.5 -164q0 -95 45.5 -163t132.5 -112t214 -64.5t290 -20.5q54 0 100 3.5t80.5 8t56.5 8.5t28 4q1 0 3 -5t4 -11.5t3 -12t1 -6.5zM728 763q0 -4 -6.5 -16.5t-16.5 -29.5t-22.5 -36t-24 -34.5t-21.5 -26t-14 -10.5
q-3 0 -25.5 14.5t-47.5 33t-45.5 36t-20.5 22.5q0 4 6.5 17t17 30l23 36t24 34.5t20.5 26t13 10.5q6 0 28.5 -15t47.5 -33.5t44.5 -36t19.5 -22.5z" />
    <glyph glyph-name="uni0681.init" unicode="&#x681;" horiz-adv-x="1120" 
d="M1038 445q0 -3 -3 -23.5t-7.5 -45.5l-8.5 -47t-6 -28q-1 -3 -27.5 -5.5t-72 -4t-106 -2t-129.5 -0.5q-47 0 -88.5 -15.5t-81.5 -40t-79 -55l-80 -60.5q-33 -24 -69 -45t-76.5 -37.5t-84.5 -26t-92 -9.5h-39q-19 0 -30 11.5t-16.5 28t-7 34t-1.5 29.5t1.5 29t7 33.5
t16.5 28t30 11.5h37q77 0 157 8.5t149 36.5q19 8 40 18.5l42 20.5t42 18.5t40 12.5q-21 8 -54.5 24t-73.5 31.5t-83.5 27t-83.5 11.5q-21 0 -41.5 -6.5t-37 -15t-28 -15t-12.5 -6.5q-2 0 -7 2t-10 4.5t-9.5 5t-4.5 4.5q0 20 7 44.5t19.5 49.5t30.5 47.5t40 37.5q25 17 55 29
t78 12q31 0 72.5 -15t85.5 -35l88 -39.5t79 -27.5q54 -13 117.5 -23t141.5 -14q24 -1 54 -2t57 -1.5t45 -2t18 -2.5zM710 888q0 -6 -4.5 -18.5t-11.5 -24.5t-14.5 -22t-13.5 -12t-25 -9l-43.5 -16.5l-50.5 -20t-46 -17.5q-49 -19 -84 -36t-43 -17q-5 0 -9 2.5t-4 10.5
q0 5 3.5 15.5t8.5 21t10 19.5t7 12q3 3 10 8t15 9.5t15.5 8l11.5 5.5q-8 2 -17.5 7.5t-17.5 14t-14 19.5t-6 25q0 17 9 38.5t22.5 42.5t28 39t26.5 30q19 19 37 30t33 16.5t28 7t23 1.5q11 0 23 -4.5t22 -13t16.5 -20t6.5 -25.5q0 -13 -4 -28.5t-10 -29t-12.5 -22.5
t-10.5 -9t-14.5 6.5l-23.5 14.5t-27 14.5t-26 6.5q-20 0 -34 -12t-14 -23q0 -3 11.5 -12.5t28.5 -19.5t36 -18t34 -9q12 3 28.5 8l32 9.5l27.5 8t15 3.5q11 0 11 -15z" />
    <glyph glyph-name="uni0681.medi" unicode="&#x681;" horiz-adv-x="1095" 
d="M1162 103q0 -12 -1.5 -29.5t-7 -34t-16.5 -28t-30 -11.5h-37q-117 0 -206.5 11t-134.5 42q-59 40 -59 124q0 10 2 24t6 29.5t8.5 31t9.5 27.5h-18q-47 0 -88.5 -15.5t-81.5 -40t-79 -55l-80 -60.5q-33 -24 -69 -45t-76.5 -37.5t-85 -26t-93.5 -9.5h-37q-19 0 -30 11.5
t-16.5 28t-7 34t-1.5 29.5t1.5 29t7 33.5t16.5 28t30 11.5h37q100 0 173.5 10.5t132.5 34.5q18 7 38.5 17.5l42 21t43 19t40.5 12.5q-21 8 -54.5 24t-73.5 31.5t-83.5 27t-83.5 11.5q-21 0 -41.5 -6.5t-37 -15t-28 -15t-12.5 -6.5q-2 0 -7.5 2t-10.5 4.5t-9 5t-4 4.5
q0 20 7 44.5t19.5 49.5t30.5 47.5t40 37.5q25 17 55 29t78 12q31 0 72.5 -15t85.5 -35l88 -39.5t79 -27.5q81 -19 192 -31t230 -12q5 0 7.5 -4.5t2.5 -9.5q0 -2 -3 -20.5t-7 -41l-8 -43.5t-6 -27q-1 -3 -26.5 -6t-62 -4.5t-78.5 -2.5t-77 -1q-1 -2 -1 -6v-7q0 -14 11 -25
t28 -19q22 -9 56 -14.5t71 -7.5t73 -2.5t63 -0.5h37q19 0 30 -11.5t16.5 -28t7 -33.5t1.5 -29zM733 864q0 -6 -4.5 -18.5t-11.5 -24.5t-14.5 -22t-13.5 -12t-25 -9l-43.5 -16.5l-50.5 -20t-46 -17.5q-49 -19 -84 -36t-43 -17q-5 0 -9 2.5t-4 10.5q0 5 3.5 15.5t8.5 21
t10 19.5t7 12q3 3 10 8t15 9.5t15.5 8l11.5 5.5q-8 2 -17.5 7.5t-17.5 14t-14 19.5t-6 25q0 17 9 38.5t22.5 42.5t28 39t26.5 30q19 19 37 30t33 16.5t28 7t23 1.5q11 0 23 -4.5t22 -13t16.5 -20t6.5 -25.5q0 -13 -4 -28.5t-10 -29t-12.5 -22.5t-10.5 -9t-14.5 6.5
l-23.5 14.5t-27 14.5t-26 6.5q-20 0 -34 -12t-14 -23q0 -3 11.5 -12.5t28.5 -19.5t36 -18t34 -9q12 3 28.5 8l32 9.5l27.5 8t15 3.5q11 0 11 -15z" />
    <glyph glyph-name="uni0681.fina" unicode="&#x681;" horiz-adv-x="1112" 
d="M1101 -593q0 -5 -22.5 -17.5t-58 -29.5t-79 -35.5l-84.5 -35t-75.5 -28.5t-51.5 -16q-40 -9 -70.5 -10.5t-47.5 -1.5q-104 0 -205.5 26.5t-182 83.5t-130 146.5t-49.5 214.5q0 99 35.5 185.5t94.5 159t134 131t155 101.5q-54 17 -100.5 23t-84.5 6t-67.5 -4.5t-51 -10
t-34.5 -10t-19 -4.5q-2 0 -11 6.5t-9 11.5q0 13 4 34.5t8.5 43.5t8.5 39.5t5 21.5q1 5 21.5 17.5t52 25t70 22.5t76.5 10q69 0 116.5 -7.5t91 -16.5t91 -16.5t117.5 -7.5q16 0 41.5 1t53 2.5t55 2.5t47.5 1q17 0 28 -1.5t11 -3.5t-4.5 -13l-11 -26.5l-14.5 -33.5t-15.5 -33
t-13 -25t-6.5 -10q-10 -2 -27 -4.5l-37 -5.5t-41 -6.5l-39 -6.5q1 -26 11.5 -44.5t43 -30.5t93.5 -17.5t163 -5.5h37q11 0 21 -2t17.5 -12t12 -29.5t4.5 -54.5q0 -63 -16 -85t-39 -22h-117q-76 0 -133.5 2t-103.5 16q-39 11 -60 43t-21 89q0 23 6.5 59t14.5 73
q-120 -31 -224 -81.5t-180 -115.5t-119.5 -143t-43.5 -164q0 -95 45.5 -163t132.5 -112t214 -64.5t290 -20.5q54 0 100 3.5t80.5 8t56.5 8.5t28 4q1 0 3 -5t4 -11.5t3 -12t1 -6.5zM794 796q0 -6 -4.5 -18.5t-11.5 -24.5t-14.5 -22t-13.5 -12t-25 -9l-43.5 -16.5l-50.5 -20
t-46 -17.5q-49 -19 -84 -36t-43 -17q-5 0 -9 2.5t-4 10.5q0 5 3.5 15.5t8.5 21t10 19.5t7 12q3 3 10 8t15 9.5t15.5 8l11.5 5.5q-8 2 -17.5 7.5t-17.5 14t-14 19.5t-6 25q0 17 9 38.5t22.5 42.5t28 39t26.5 30q19 19 37 30t33 16.5t28 7t23 1.5q11 0 23 -4.5t22 -13
t16.5 -20t6.5 -25.5q0 -13 -4 -28.5t-10 -29t-12.5 -22.5t-10.5 -9t-14.5 6.5l-23.5 14.5t-27 14.5t-26 6.5q-20 0 -34 -12t-14 -23q0 -3 11.5 -12.5t28.5 -19.5t36 -18t34 -9q12 3 28.5 8l32 9.5l27.5 8t15 3.5q11 0 11 -15z" />
    <glyph glyph-name="uni0682.init" unicode="&#x682;" horiz-adv-x="1120" 
d="M1038 445q0 -3 -3 -23.5t-7.5 -45.5l-8.5 -47t-6 -28q-1 -3 -27.5 -5.5t-72 -4t-106 -2t-129.5 -0.5q-47 0 -88.5 -15.5t-81.5 -40t-79 -55l-80 -60.5q-33 -24 -69 -45t-76.5 -37.5t-84.5 -26t-92 -9.5h-39q-19 0 -30 11.5t-16.5 28t-7 34t-1.5 29.5t1.5 29t7 33.5
t16.5 28t30 11.5h37q77 0 157 8.5t149 36.5q19 8 40 18.5l42 20.5t42 18.5t40 12.5q-21 8 -54.5 24t-73.5 31.5t-83.5 27t-83.5 11.5q-21 0 -41.5 -6.5t-37 -15t-28 -15t-12.5 -6.5q-2 0 -7 2t-10 4.5t-9.5 5t-4.5 4.5q0 20 7 44.5t19.5 49.5t30.5 47.5t40 37.5q25 17 55 29
t78 12q31 0 72.5 -15t85.5 -35l88 -39.5t79 -27.5q54 -13 117.5 -23t141.5 -14q24 -1 54 -2t57 -1.5t45 -2t18 -2.5zM649 796q0 -8 -13.5 -29.5t-30.5 -44.5t-32.5 -41t-19.5 -18q-3 0 -23.5 12t-44 28l-43 30.5t-19.5 19.5q0 6 10.5 22.5t25 35.5l28.5 36.5t22 25.5
q5 7 5 11q0 5 -3 8l-28 18.5l-38.5 26.5t-34 26t-14.5 17q0 3 6.5 14l16 26l21 32t22.5 31t19.5 23.5t12.5 9.5q7 0 29.5 -14.5t46 -32.5t42 -34t18.5 -18q0 -3 -10.5 -18l-24 -34l-27 -37l-19.5 -26q-2 -2 -6 -7t-4 -10q0 -4 9 -10q8 -6 25 -17.5l34 -23.5t29.5 -23
t12.5 -15z" />
    <glyph glyph-name="uni0682.medi" unicode="&#x682;" horiz-adv-x="1095" 
d="M1162 103q0 -12 -1.5 -29.5t-7 -34t-16.5 -28t-30 -11.5h-37q-117 0 -206.5 11t-134.5 42q-59 40 -59 124q0 10 2 24t6 29.5t8.5 31t9.5 27.5h-18q-47 0 -88.5 -15.5t-81.5 -40t-79 -55l-80 -60.5q-33 -24 -69 -45t-76.5 -37.5t-85 -26t-93.5 -9.5h-37q-19 0 -30 11.5
t-16.5 28t-7 34t-1.5 29.5t1.5 29t7 33.5t16.5 28t30 11.5h37q100 0 173.5 10.5t132.5 34.5q18 7 38.5 17.5l42 21t43 19t40.5 12.5q-21 8 -54.5 24t-73.5 31.5t-83.5 27t-83.5 11.5q-21 0 -41.5 -6.5t-37 -15t-28 -15t-12.5 -6.5q-2 0 -7.5 2t-10.5 4.5t-9 5t-4 4.5
q0 20 7 44.5t19.5 49.5t30.5 47.5t40 37.5q25 17 55 29t78 12q31 0 72.5 -15t85.5 -35l88 -39.5t79 -27.5q81 -19 192 -31t230 -12q5 0 7.5 -4.5t2.5 -9.5q0 -2 -3 -20.5t-7 -41l-8 -43.5t-6 -27q-1 -3 -26.5 -6t-62 -4.5t-78.5 -2.5t-77 -1q-1 -2 -1 -6v-7q0 -14 11 -25
t28 -19q22 -9 56 -14.5t71 -7.5t73 -2.5t63 -0.5h37q19 0 30 -11.5t16.5 -28t7 -33.5t1.5 -29zM671 842q0 -8 -13.5 -29.5t-30.5 -44.5t-32.5 -41t-19.5 -18q-3 0 -23.5 12t-44 28l-43 30.5t-19.5 19.5q0 6 10.5 22.5t25 35.5l28.5 36.5t22 25.5q5 7 5 11q0 5 -3 8l-28 18.5
l-38.5 26.5t-34 26t-14.5 17q0 3 6.5 14l16 26l21 32t22.5 31t19.5 23.5t12.5 9.5q7 0 29.5 -14.5t46 -32.5t42 -34t18.5 -18q0 -3 -10.5 -18l-24 -34l-27 -37l-19.5 -26q-2 -2 -6 -7t-4 -10q0 -4 9 -10q8 -6 25 -17.5l34 -23.5t29.5 -23t12.5 -15z" />
    <glyph glyph-name="uni0682.fina" unicode="&#x682;" horiz-adv-x="1112" 
d="M1101 -593q0 -5 -22.5 -17.5t-58 -29.5t-79 -35.5l-84.5 -35t-75.5 -28.5t-51.5 -16q-40 -9 -70.5 -10.5t-47.5 -1.5q-104 0 -205.5 26.5t-182 83.5t-130 146.5t-49.5 214.5q0 99 35.5 185.5t94.5 159t134 131t155 101.5q-54 17 -100.5 23t-84.5 6t-67.5 -4.5t-51 -10
t-34.5 -10t-19 -4.5q-2 0 -11 6.5t-9 11.5q0 13 4 34.5t8.5 43.5t8.5 39.5t5 21.5q1 5 21.5 17.5t52 25t70 22.5t76.5 10q69 0 116.5 -7.5t91 -16.5t91 -16.5t117.5 -7.5q16 0 41.5 1t53 2.5t55 2.5t47.5 1q17 0 28 -1.5t11 -3.5t-4.5 -13l-11 -26.5l-14.5 -33.5t-15.5 -33
t-13 -25t-6.5 -10q-10 -2 -27 -4.5l-37 -5.5t-41 -6.5l-39 -6.5q1 -26 11.5 -44.5t43 -30.5t93.5 -17.5t163 -5.5h37q11 0 21 -2t17.5 -12t12 -29.5t4.5 -54.5q0 -63 -16 -85t-39 -22h-117q-76 0 -133.5 2t-103.5 16q-39 11 -60 43t-21 89q0 23 6.5 59t14.5 73
q-120 -31 -224 -81.5t-180 -115.5t-119.5 -143t-43.5 -164q0 -95 45.5 -163t132.5 -112t214 -64.5t290 -20.5q54 0 100 3.5t80.5 8t56.5 8.5t28 4q1 0 3 -5t4 -11.5t3 -12t1 -6.5zM713 727q0 -8 -13.5 -29.5t-30.5 -44.5t-32.5 -41t-19.5 -18q-3 0 -23.5 12t-44 28l-43 30.5
t-19.5 19.5q0 6 10.5 22.5t25 35.5l28.5 36.5t22 25.5q5 7 5 11q0 5 -3 8l-28 18.5l-38.5 26.5t-34 26t-14.5 17q0 3 6.5 14l16 26l21 32t22.5 31t19.5 23.5t12.5 9.5q7 0 29.5 -14.5t46 -32.5t42 -34t18.5 -18q0 -3 -10.5 -18l-24 -34l-27 -37l-19.5 -26q-2 -2 -6 -7
t-4 -10q0 -4 9 -10q8 -6 25 -17.5l34 -23.5t29.5 -23t12.5 -15z" />
    <glyph glyph-name="uni0683.init" unicode="&#x683;" horiz-adv-x="1120" arabic-form="initial" 
d="M1038 445q0 -3 -3 -23.5t-7.5 -45.5l-8.5 -47t-6 -28q-1 -3 -27.5 -5.5t-72 -4t-106 -2t-129.5 -0.5q-47 0 -88.5 -15.5t-81.5 -40t-79 -55l-80 -60.5q-33 -24 -69 -45t-76.5 -37.5t-84.5 -26t-92 -9.5h-39q-19 0 -30 11.5t-16.5 28t-7 34t-1.5 29.5t1.5 29t7 33.5
t16.5 28t30 11.5h37q77 0 157 8.5t149 36.5q19 8 40 18.5l42 20.5t42 18.5t40 12.5q-21 8 -54.5 24t-73.5 31.5t-83.5 27t-83.5 11.5q-21 0 -41.5 -6.5t-37 -15t-28 -15t-12.5 -6.5q-2 0 -7 2t-10 4.5t-9.5 5t-4.5 4.5q0 20 7 44.5t19.5 49.5t30.5 47.5t40 37.5q25 17 55 29
t78 12q31 0 72.5 -15t85.5 -35l88 -39.5t79 -27.5q54 -13 117.5 -23t141.5 -14q24 -1 54 -2t57 -1.5t45 -2t18 -2.5zM621 -81q6 0 27 -14t44 -31.5t41 -34t18 -20.5t-6 -16t-15.5 -28t-21 -33.5t-22 -32t-19 -24t-11.5 -9.5q-4 0 -23.5 14l-42.5 31l-60 46q-6 6 -13 6
q-3 0 -8 -9l-41 -58q-16 -22 -31 -39.5t-20 -17.5q-2 0 -12.5 6.5t-25.5 17l-31 22.5l-30 23t-23 19.5t-9 11.5q0 4 6.5 16t16.5 28.5l21.5 34.5t22.5 32.5l19 24.5t10 10q7 0 27 -14.5l42 -31.5q26 -20 55 -45q6 -7 11 -7q3 0 5.5 2t7.5 9l42 55l30.5 38.5t18.5 17.5z" />
    <glyph glyph-name="uni0683.medi" unicode="&#x683;" horiz-adv-x="1095" arabic-form="medial" 
d="M1162 103q0 -12 -1.5 -29.5t-7 -34t-16.5 -28t-30 -11.5h-37q-117 0 -206.5 11t-134.5 42q-59 40 -59 124q0 10 2 24t6 29.5t8.5 31t9.5 27.5h-18q-47 0 -88.5 -15.5t-81.5 -40t-79 -55l-80 -60.5q-33 -24 -69 -45t-76.5 -37.5t-85 -26t-93.5 -9.5h-37q-19 0 -30 11.5
t-16.5 28t-7 34t-1.5 29.5t1.5 29t7 33.5t16.5 28t30 11.5h37q100 0 173.5 10.5t132.5 34.5q18 7 38.5 17.5l42 21t43 19t40.5 12.5q-21 8 -54.5 24t-73.5 31.5t-83.5 27t-83.5 11.5q-21 0 -41.5 -6.5t-37 -15t-28 -15t-12.5 -6.5q-2 0 -7.5 2t-10.5 4.5t-9 5t-4 4.5
q0 20 7 44.5t19.5 49.5t30.5 47.5t40 37.5q25 17 55 29t78 12q31 0 72.5 -15t85.5 -35l88 -39.5t79 -27.5q81 -19 192 -31t230 -12q5 0 7.5 -4.5t2.5 -9.5q0 -2 -3 -20.5t-7 -41l-8 -43.5t-6 -27q-1 -3 -26.5 -6t-62 -4.5t-78.5 -2.5t-77 -1q-1 -2 -1 -6v-7q0 -14 11 -25
t28 -19q22 -9 56 -14.5t71 -7.5t73 -2.5t63 -0.5h37q19 0 30 -11.5t16.5 -28t7 -33.5t1.5 -29zM645 -66q6 0 27 -14t44 -31.5t41 -34t18 -20.5t-6 -16t-15.5 -28t-21 -33.5t-22 -32t-19 -24t-11.5 -9.5q-4 0 -23.5 14l-42.5 31l-60 46q-6 6 -13 6q-3 0 -8 -9l-41 -58
q-16 -22 -31 -39.5t-20 -17.5q-2 0 -12.5 6.5t-25.5 17l-31 22.5l-30 23t-23 19.5t-9 11.5q0 4 6.5 16t16.5 28.5l21.5 34.5t22.5 32.5l19 24.5t10 10q7 0 27 -14.5l42 -31.5q26 -20 55 -45q6 -7 11 -7q3 0 5.5 2t7.5 9l42 55l30.5 38.5t18.5 17.5z" />
    <glyph glyph-name="uni0683.fina" unicode="&#x683;" horiz-adv-x="1112" arabic-form="final" 
d="M1101 -593q0 -5 -22.5 -17.5t-58 -29.5t-79 -35.5l-84.5 -35t-75.5 -28.5t-51.5 -16q-40 -9 -70.5 -10.5t-47.5 -1.5q-104 0 -205.5 26.5t-182 83.5t-130 146.5t-49.5 214.5q0 99 35.5 185.5t94.5 159t134 131t155 101.5q-54 17 -100.5 23t-84.5 6t-67.5 -4.5t-51 -10
t-34.5 -10t-19 -4.5q-2 0 -11 6.5t-9 11.5q0 13 4 34.5t8.5 43.5t8.5 39.5t5 21.5q1 5 21.5 17.5t52 25t70 22.5t76.5 10q69 0 116.5 -7.5t91 -16.5t91 -16.5t117.5 -7.5q16 0 41.5 1t53 2.5t55 2.5t47.5 1q17 0 28 -1.5t11 -3.5t-4.5 -13l-11 -26.5l-14.5 -33.5t-15.5 -33
t-13 -25t-6.5 -10q-10 -2 -27 -4.5l-37 -5.5t-41 -6.5l-39 -6.5q1 -26 11.5 -44.5t43 -30.5t93.5 -17.5t163 -5.5h37q11 0 21 -2t17.5 -12t12 -29.5t4.5 -54.5q0 -63 -16 -85t-39 -22h-117q-76 0 -133.5 2t-103.5 16q-39 11 -60 43t-21 89q0 23 6.5 59t14.5 73
q-120 -31 -224 -81.5t-180 -115.5t-119.5 -143t-43.5 -164q0 -95 45.5 -163t132.5 -112t214 -64.5t290 -20.5q54 0 100 3.5t80.5 8t56.5 8.5t28 4q1 0 3 -5t4 -11.5t3 -12t1 -6.5zM687 -68q6 0 27 -14t44 -31.5t41 -34t18 -20.5t-6 -16t-15.5 -28t-21 -33.5t-22 -32t-19 -24
t-11.5 -9.5q-4 0 -23.5 14l-42.5 31l-60 46q-6 6 -13 6q-3 0 -8 -9l-41 -58q-16 -22 -31 -39.5t-20 -17.5q-2 0 -12.5 6.5t-25.5 17l-31 22.5l-30 23t-23 19.5t-9 11.5q0 4 6.5 16t16.5 28.5l21.5 34.5t22.5 32.5l19 24.5t10 10q7 0 27 -14.5l42 -31.5q26 -20 55 -45
q6 -7 11 -7q3 0 5.5 2t7.5 9l42 55l30.5 38.5t18.5 17.5z" />
    <glyph glyph-name="uni0684.init" unicode="&#x684;" horiz-adv-x="1120" arabic-form="initial" 
d="M1038 445q0 -3 -3 -23.5t-7.5 -45.5l-8.5 -47t-6 -28q-1 -3 -27.5 -5.5t-72 -4t-106 -2t-129.5 -0.5q-47 0 -88.5 -15.5t-81.5 -40t-79 -55l-80 -60.5q-33 -24 -69 -45t-76.5 -37.5t-84.5 -26t-92 -9.5h-39q-19 0 -30 11.5t-16.5 28t-7 34t-1.5 29.5t1.5 29t7 33.5
t16.5 28t30 11.5h37q77 0 157 8.5t149 36.5q19 8 40 18.5l42 20.5t42 18.5t40 12.5q-21 8 -54.5 24t-73.5 31.5t-83.5 27t-83.5 11.5q-21 0 -41.5 -6.5t-37 -15t-28 -15t-12.5 -6.5q-2 0 -7 2t-10 4.5t-9.5 5t-4.5 4.5q0 20 7 44.5t19.5 49.5t30.5 47.5t40 37.5q25 17 55 29
t78 12q31 0 72.5 -15t85.5 -35l88 -39.5t79 -27.5q54 -13 117.5 -23t141.5 -14q24 -1 54 -2t57 -1.5t45 -2t18 -2.5zM656 -406q0 -8 -13.5 -29.5t-30.5 -44.5t-32.5 -41t-19.5 -18q-3 0 -23.5 12t-44 28l-43 30.5t-19.5 19.5q0 6 10.5 22.5t25 35.5l28.5 36.5t22 25.5
q5 7 5 11q0 5 -3 8l-28 18.5l-38.5 26.5t-34 26t-14.5 17q0 3 6.5 14l16 26l21 32t22.5 31t19.5 23.5t12.5 9.5q7 0 29.5 -14.5t46 -32.5t42 -34t18.5 -18q0 -3 -10.5 -18l-24 -34l-27 -37l-19.5 -26q-2 -2 -6 -7t-4 -10q0 -4 9 -10q8 -6 25 -17.5l34 -23.5t29.5 -23
t12.5 -15z" />
    <glyph glyph-name="uni0684.medi" unicode="&#x684;" horiz-adv-x="1095" arabic-form="medial" 
d="M1162 103q0 -12 -1.5 -29.5t-7 -34t-16.5 -28t-30 -11.5h-37q-117 0 -206.5 11t-134.5 42q-59 40 -59 124q0 10 2 24t6 29.5t8.5 31t9.5 27.5h-18q-47 0 -88.5 -15.5t-81.5 -40t-79 -55l-80 -60.5q-33 -24 -69 -45t-76.5 -37.5t-85 -26t-93.5 -9.5h-37q-19 0 -30 11.5
t-16.5 28t-7 34t-1.5 29.5t1.5 29t7 33.5t16.5 28t30 11.5h37q100 0 173.5 10.5t132.5 34.5q18 7 38.5 17.5l42 21t43 19t40.5 12.5q-21 8 -54.5 24t-73.5 31.5t-83.5 27t-83.5 11.5q-21 0 -41.5 -6.5t-37 -15t-28 -15t-12.5 -6.5q-2 0 -7.5 2t-10.5 4.5t-9 5t-4 4.5
q0 20 7 44.5t19.5 49.5t30.5 47.5t40 37.5q25 17 55 29t78 12q31 0 72.5 -15t85.5 -35l88 -39.5t79 -27.5q81 -19 192 -31t230 -12q5 0 7.5 -4.5t2.5 -9.5q0 -2 -3 -20.5t-7 -41l-8 -43.5t-6 -27q-1 -3 -26.5 -6t-62 -4.5t-78.5 -2.5t-77 -1q-1 -2 -1 -6v-7q0 -14 11 -25
t28 -19q22 -9 56 -14.5t71 -7.5t73 -2.5t63 -0.5h37q19 0 30 -11.5t16.5 -28t7 -33.5t1.5 -29zM671 -410q0 -8 -13.5 -29.5t-30.5 -44.5t-32.5 -41t-19.5 -18q-3 0 -23.5 12t-44 28l-43 30.5t-19.5 19.5q0 6 10.5 22.5t25 35.5l28.5 36.5t22 25.5q5 7 5 11q0 5 -3 8
l-28 18.5l-38.5 26.5t-34 26t-14.5 17q0 3 6.5 14l16 26l21 32t22.5 31t19.5 23.5t12.5 9.5q7 0 29.5 -14.5t46 -32.5t42 -34t18.5 -18q0 -3 -10.5 -18l-24 -34l-27 -37l-19.5 -26q-2 -2 -6 -7t-4 -10q0 -4 9 -10q8 -6 25 -17.5l34 -23.5t29.5 -23t12.5 -15z" />
    <glyph glyph-name="uni0684.fina" unicode="&#x684;" horiz-adv-x="1112" arabic-form="final" 
d="M1101 -593q0 -5 -22.5 -17.5t-58 -29.5t-79 -35.5l-84.5 -35t-75.5 -28.5t-51.5 -16q-40 -9 -70.5 -10.5t-47.5 -1.5q-104 0 -205.5 26.5t-182 83.5t-130 146.5t-49.5 214.5q0 99 35.5 185.5t94.5 159t134 131t155 101.5q-54 17 -100.5 23t-84.5 6t-67.5 -4.5t-51 -10
t-34.5 -10t-19 -4.5q-2 0 -11 6.5t-9 11.5q0 13 4 34.5t8.5 43.5t8.5 39.5t5 21.5q1 5 21.5 17.5t52 25t70 22.5t76.5 10q69 0 116.5 -7.5t91 -16.5t91 -16.5t117.5 -7.5q16 0 41.5 1t53 2.5t55 2.5t47.5 1q17 0 28 -1.5t11 -3.5t-4.5 -13l-11 -26.5l-14.5 -33.5t-15.5 -33
t-13 -25t-6.5 -10q-10 -2 -27 -4.5l-37 -5.5t-41 -6.5l-39 -6.5q1 -26 11.5 -44.5t43 -30.5t93.5 -17.5t163 -5.5h37q11 0 21 -2t17.5 -12t12 -29.5t4.5 -54.5q0 -63 -16 -85t-39 -22h-117q-76 0 -133.5 2t-103.5 16q-39 11 -60 43t-21 89q0 23 6.5 59t14.5 73
q-120 -31 -224 -81.5t-180 -115.5t-119.5 -143t-43.5 -164q0 -95 45.5 -163t132.5 -112t214 -64.5t290 -20.5q54 0 100 3.5t80.5 8t56.5 8.5t28 4q1 0 3 -5t4 -11.5t3 -12t1 -6.5zM700 -306q0 -8 -13.5 -29.5t-30.5 -44.5t-32.5 -41t-19.5 -18q-3 0 -23.5 12t-44 28
l-43 30.5t-19.5 19.5q0 6 10.5 22.5t25 35.5l28.5 36.5t22 25.5q5 7 5 11q0 5 -3 8l-28 18.5l-38.5 26.5t-34 26t-14.5 17q0 3 6.5 14l16 26l21 32t22.5 31t19.5 23.5t12.5 9.5q7 0 29.5 -14.5t46 -32.5t42 -34t18.5 -18q0 -3 -10.5 -18l-24 -34l-27 -37l-19.5 -26
q-2 -2 -6 -7t-4 -10q0 -4 9 -10q8 -6 25 -17.5l34 -23.5t29.5 -23t12.5 -15z" />
    <glyph glyph-name="uni0685.init" unicode="&#x685;" horiz-adv-x="1120" 
d="M1038 445q0 -3 -3 -23.5t-7.5 -45.5l-8.5 -47t-6 -28q-1 -3 -27.5 -5.5t-72 -4t-106 -2t-129.5 -0.5q-47 0 -88.5 -15.5t-81.5 -40t-79 -55l-80 -60.5q-33 -24 -69 -45t-76.5 -37.5t-84.5 -26t-92 -9.5h-39q-19 0 -30 11.5t-16.5 28t-7 34t-1.5 29.5t1.5 29t7 33.5
t16.5 28t30 11.5h37q77 0 157 8.5t149 36.5q19 8 40 18.5l42 20.5t42 18.5t40 12.5q-21 8 -54.5 24t-73.5 31.5t-83.5 27t-83.5 11.5q-21 0 -41.5 -6.5t-37 -15t-28 -15t-12.5 -6.5q-2 0 -7 2t-10 4.5t-9.5 5t-4.5 4.5q0 20 7 44.5t19.5 49.5t30.5 47.5t40 37.5q25 17 55 29
t78 12q31 0 72.5 -15t85.5 -35l88 -39.5t79 -27.5q54 -13 117.5 -23t141.5 -14q24 -1 54 -2t57 -1.5t45 -2t18 -2.5zM380 1072q0 6 13 29.5t30 49.5t33.5 46.5t22.5 20.5q2 0 13 -6.5t25.5 -16.5l31 -22.5l30.5 -23.5t23 -20t9 -12q0 -4 -6.5 -16l-16 -28.5t-21.5 -34.5
t-23 -32.5t-19.5 -24.5t-11.5 -10q-6 0 -27.5 14t-45 32t-42 34t-18.5 21zM423 709q-6 0 -27 14t-44 32t-41 34t-18 20q0 6 13 29t29.5 48.5t32 46t20.5 20.5q3 0 23 -14.5l43 -31.5l60 -46q7 -5 13 -5q3 0 8 8l41 57q16 22 31 40t20 18q2 0 12.5 -6.5t25.5 -17l31 -22.5
l30 -23t23 -19.5t9 -11.5q0 -4 -6.5 -16t-16.5 -28.5l-21.5 -34.5t-22.5 -32.5l-19 -24.5t-10 -10q-8 0 -27.5 14l-41.5 31q-26 20 -55 46q-6 7 -11 7q-6 0 -13 -10l-42 -56l-31 -38.5t-18 -17.5z" />
    <glyph glyph-name="uni0685.medi" unicode="&#x685;" horiz-adv-x="1095" 
d="M1162 103q0 -12 -1.5 -29.5t-7 -34t-16.5 -28t-30 -11.5h-37q-117 0 -206.5 11t-134.5 42q-59 40 -59 124q0 10 2 24t6 29.5t8.5 31t9.5 27.5h-18q-47 0 -88.5 -15.5t-81.5 -40t-79 -55l-80 -60.5q-33 -24 -69 -45t-76.5 -37.5t-85 -26t-93.5 -9.5h-37q-19 0 -30 11.5
t-16.5 28t-7 34t-1.5 29.5t1.5 29t7 33.5t16.5 28t30 11.5h37q100 0 173.5 10.5t132.5 34.5q18 7 38.5 17.5l42 21t43 19t40.5 12.5q-21 8 -54.5 24t-73.5 31.5t-83.5 27t-83.5 11.5q-21 0 -41.5 -6.5t-37 -15t-28 -15t-12.5 -6.5q-2 0 -7.5 2t-10.5 4.5t-9 5t-4 4.5
q0 20 7 44.5t19.5 49.5t30.5 47.5t40 37.5q25 17 55 29t78 12q31 0 72.5 -15t85.5 -35l88 -39.5t79 -27.5q81 -19 192 -31t230 -12q5 0 7.5 -4.5t2.5 -9.5q0 -2 -3 -20.5t-7 -41l-8 -43.5t-6 -27q-1 -3 -26.5 -6t-62 -4.5t-78.5 -2.5t-77 -1q-1 -2 -1 -6v-7q0 -14 11 -25
t28 -19q22 -9 56 -14.5t71 -7.5t73 -2.5t63 -0.5h37q19 0 30 -11.5t16.5 -28t7 -33.5t1.5 -29zM375 1104q0 6 13 29.5t30 49.5t33.5 46.5t22.5 20.5q2 0 13 -6.5t25.5 -16.5l31 -22.5l30.5 -23.5t23 -20t9 -12q0 -4 -6.5 -16l-16 -28.5t-21.5 -34.5t-23 -32.5t-19.5 -24.5
t-11.5 -10q-6 0 -27.5 14t-45 32t-42 34t-18.5 21zM418 741q-6 0 -27 14t-44 32t-41 34t-18 20q0 6 13 29t29.5 48.5t32 46t20.5 20.5q3 0 23 -14.5l43 -31.5l60 -46q7 -5 13 -5q3 0 8 8l41 57q16 22 31 40t20 18q2 0 12.5 -6.5t25.5 -17l31 -22.5l30 -23t23 -19.5t9 -11.5
q0 -4 -6.5 -16t-16.5 -28.5l-21.5 -34.5t-22.5 -32.5l-19 -24.5t-10 -10q-8 0 -27.5 14l-41.5 31q-26 20 -55 46q-6 7 -11 7q-6 0 -13 -10l-42 -56l-31 -38.5t-18 -17.5z" />
    <glyph glyph-name="uni0685.fina" unicode="&#x685;" horiz-adv-x="1112" 
d="M1101 -593q0 -5 -22.5 -17.5t-58 -29.5t-79 -35.5l-84.5 -35t-75.5 -28.5t-51.5 -16q-40 -9 -70.5 -10.5t-47.5 -1.5q-104 0 -205.5 26.5t-182 83.5t-130 146.5t-49.5 214.5q0 99 35.5 185.5t94.5 159t134 131t155 101.5q-54 17 -100.5 23t-84.5 6t-67.5 -4.5t-51 -10
t-34.5 -10t-19 -4.5q-2 0 -11 6.5t-9 11.5q0 13 4 34.5t8.5 43.5t8.5 39.5t5 21.5q1 5 21.5 17.5t52 25t70 22.5t76.5 10q69 0 116.5 -7.5t91 -16.5t91 -16.5t117.5 -7.5q16 0 41.5 1t53 2.5t55 2.5t47.5 1q17 0 28 -1.5t11 -3.5t-4.5 -13l-11 -26.5l-14.5 -33.5t-15.5 -33
t-13 -25t-6.5 -10q-10 -2 -27 -4.5l-37 -5.5t-41 -6.5l-39 -6.5q1 -26 11.5 -44.5t43 -30.5t93.5 -17.5t163 -5.5h37q11 0 21 -2t17.5 -12t12 -29.5t4.5 -54.5q0 -63 -16 -85t-39 -22h-117q-76 0 -133.5 2t-103.5 16q-39 11 -60 43t-21 89q0 23 6.5 59t14.5 73
q-120 -31 -224 -81.5t-180 -115.5t-119.5 -143t-43.5 -164q0 -95 45.5 -163t132.5 -112t214 -64.5t290 -20.5q54 0 100 3.5t80.5 8t56.5 8.5t28 4q1 0 3 -5t4 -11.5t3 -12t1 -6.5zM454 979q0 6 13 29.5t30 49.5t33.5 46.5t22.5 20.5q2 0 13 -6.5t25.5 -16.5l31 -22.5
l30.5 -23.5t23 -20t9 -12q0 -4 -6.5 -16l-16 -28.5t-21.5 -34.5t-23 -32.5t-19.5 -24.5t-11.5 -10q-6 0 -27.5 14t-45 32t-42 34t-18.5 21zM497 616q-6 0 -27 14t-44 32t-41 34t-18 20q0 6 13 29t29.5 48.5t32 46t20.5 20.5q3 0 23 -14.5l43 -31.5l60 -46q7 -5 13 -5
q3 0 8 8l41 57q16 22 31 40t20 18q2 0 12.5 -6.5t25.5 -17l31 -22.5l30 -23t23 -19.5t9 -11.5q0 -4 -6.5 -16t-16.5 -28.5l-21.5 -34.5t-22.5 -32.5l-19 -24.5t-10 -10q-8 0 -27.5 14l-41.5 31q-26 20 -55 46q-6 7 -11 7q-6 0 -13 -10l-42 -56l-31 -38.5t-18 -17.5z" />
    <glyph glyph-name="uni0686.init" unicode="&#x686;" horiz-adv-x="1120" arabic-form="initial" 
d="M1038 445q0 -3 -3 -23.5t-7.5 -45.5l-8.5 -47t-6 -28q-1 -3 -27.5 -5.5t-72 -4t-106 -2t-129.5 -0.5q-47 0 -88.5 -15.5t-81.5 -40t-79 -55l-80 -60.5q-33 -24 -69 -45t-76.5 -37.5t-84.5 -26t-92 -9.5h-39q-19 0 -30 11.5t-16.5 28t-7 34t-1.5 29.5t1.5 29t7 33.5
t16.5 28t30 11.5h37q77 0 157 8.5t149 36.5q19 8 40 18.5l42 20.5t42 18.5t40 12.5q-21 8 -54.5 24t-73.5 31.5t-83.5 27t-83.5 11.5q-21 0 -41.5 -6.5t-37 -15t-28 -15t-12.5 -6.5q-2 0 -7 2t-10 4.5t-9.5 5t-4.5 4.5q0 20 7 44.5t19.5 49.5t30.5 47.5t40 37.5q25 17 55 29
t78 12q31 0 72.5 -15t85.5 -35l88 -39.5t79 -27.5q54 -13 117.5 -23t141.5 -14q24 -1 54 -2t57 -1.5t45 -2t18 -2.5zM630 -75q6 0 27 -14t44 -32t41 -34t18 -20q0 -6 -13 -29t-29.5 -48.5t-32 -46t-20.5 -20.5q-4 0 -23.5 14.5l-42.5 31.5l-60 46q-7 5 -13 5q-3 0 -8 -8
l-41 -58q-16 -22 -31 -39.5t-20 -17.5q-2 0 -12.5 6.5t-25.5 17l-31 22.5l-30 23t-23 19.5t-9 11.5q0 4 6.5 16t16.5 28.5l21.5 34.5t22.5 32.5l19 24.5t10 10q7 0 27 -14.5l42 -31.5q26 -20 55 -45q6 -7 11 -7t13 10l42 56l30.5 38.5t18.5 17.5zM673 -438q0 -6 -13 -29.5
t-30 -49.5t-33.5 -46.5t-22.5 -20.5q-2 0 -13 6.5t-25.5 16.5l-31 22.5l-30.5 23.5t-23 20t-9 12q0 4 6.5 16l16 28.5t21.5 34.5t23 32.5t19.5 24.5t11.5 10q6 0 27.5 -14t45 -32t42 -34.5t18.5 -20.5z" />
    <glyph glyph-name="uni0686.medi" unicode="&#x686;" horiz-adv-x="1095" arabic-form="medial" 
d="M1162 103q0 -12 -1.5 -29.5t-7 -34t-16.5 -28t-30 -11.5h-37q-117 0 -206.5 11t-134.5 42q-59 40 -59 124q0 10 2 24t6 29.5t8.5 31t9.5 27.5h-18q-47 0 -88.5 -15.5t-81.5 -40t-79 -55l-80 -60.5q-33 -24 -69 -45t-76.5 -37.5t-85 -26t-93.5 -9.5h-37q-19 0 -30 11.5
t-16.5 28t-7 34t-1.5 29.5t1.5 29t7 33.5t16.5 28t30 11.5h37q100 0 173.5 10.5t132.5 34.5q18 7 38.5 17.5l42 21t43 19t40.5 12.5q-21 8 -54.5 24t-73.5 31.5t-83.5 27t-83.5 11.5q-21 0 -41.5 -6.5t-37 -15t-28 -15t-12.5 -6.5q-2 0 -7.5 2t-10.5 4.5t-9 5t-4 4.5
q0 20 7 44.5t19.5 49.5t30.5 47.5t40 37.5q25 17 55 29t78 12q31 0 72.5 -15t85.5 -35l88 -39.5t79 -27.5q81 -19 192 -31t230 -12q5 0 7.5 -4.5t2.5 -9.5q0 -2 -3 -20.5t-7 -41l-8 -43.5t-6 -27q-1 -3 -26.5 -6t-62 -4.5t-78.5 -2.5t-77 -1q-1 -2 -1 -6v-7q0 -14 11 -25
t28 -19q22 -9 56 -14.5t71 -7.5t73 -2.5t63 -0.5h37q19 0 30 -11.5t16.5 -28t7 -33.5t1.5 -29zM645 -72q6 0 27 -14t44 -32t41 -34t18 -20q0 -6 -13 -29t-29.5 -48.5t-32 -46t-20.5 -20.5q-4 0 -23.5 14.5l-42.5 31.5l-60 46q-7 5 -13 5q-3 0 -8 -8l-41 -58
q-16 -22 -31 -39.5t-20 -17.5q-2 0 -12.5 6.5t-25.5 17l-31 22.5l-30 23t-23 19.5t-9 11.5q0 4 6.5 16t16.5 28.5l21.5 34.5t22.5 32.5l19 24.5t10 10q7 0 27 -14.5l42 -31.5q26 -20 55 -45q6 -7 11 -7t13 10l42 56l30.5 38.5t18.5 17.5zM688 -435q0 -6 -13 -29.5t-30 -49.5
t-33.5 -46.5t-22.5 -20.5q-2 0 -13 6.5t-25.5 16.5l-31 22.5l-30.5 23.5t-23 20t-9 12q0 4 6.5 16l16 28.5t21.5 34.5t23 32.5t19.5 24.5t11.5 10q6 0 27.5 -14t45 -32t42 -34.5t18.5 -20.5z" />
    <glyph glyph-name="uni0686.fina" unicode="&#x686;" horiz-adv-x="1112" arabic-form="final" 
d="M1101 -593q0 -5 -22.5 -17.5t-58 -29.5t-79 -35.5l-84.5 -35t-75.5 -28.5t-51.5 -16q-40 -9 -70.5 -10.5t-47.5 -1.5q-104 0 -205.5 26.5t-182 83.5t-130 146.5t-49.5 214.5q0 99 35.5 185.5t94.5 159t134 131t155 101.5q-54 17 -100.5 23t-84.5 6t-67.5 -4.5t-51 -10
t-34.5 -10t-19 -4.5q-2 0 -11 6.5t-9 11.5q0 13 4 34.5t8.5 43.5t8.5 39.5t5 21.5q1 5 21.5 17.5t52 25t70 22.5t76.5 10q69 0 116.5 -7.5t91 -16.5t91 -16.5t117.5 -7.5q16 0 41.5 1t53 2.5t55 2.5t47.5 1q17 0 28 -1.5t11 -3.5t-4.5 -13l-11 -26.5l-14.5 -33.5t-15.5 -33
t-13 -25t-6.5 -10q-10 -2 -27 -4.5l-37 -5.5t-41 -6.5l-39 -6.5q1 -26 11.5 -44.5t43 -30.5t93.5 -17.5t163 -5.5h37q11 0 21 -2t17.5 -12t12 -29.5t4.5 -54.5q0 -63 -16 -85t-39 -22h-117q-76 0 -133.5 2t-103.5 16q-39 11 -60 43t-21 89q0 23 6.5 59t14.5 73
q-120 -31 -224 -81.5t-180 -115.5t-119.5 -143t-43.5 -164q0 -95 45.5 -163t132.5 -112t214 -64.5t290 -20.5q54 0 100 3.5t80.5 8t56.5 8.5t28 4q1 0 3 -5t4 -11.5t3 -12t1 -6.5zM679 -3q6 0 27 -14t44 -32t41 -34t18 -20q0 -6 -13 -29t-29.5 -48.5t-32 -46t-20.5 -20.5
q-4 0 -23.5 14.5l-42.5 31.5l-60 46q-7 5 -13 5q-3 0 -8 -8l-41 -58q-16 -22 -31 -39.5t-20 -17.5q-2 0 -12.5 6.5t-25.5 17l-31 22.5l-30 23t-23 19.5t-9 11.5q0 4 6.5 16t16.5 28.5l21.5 34.5t22.5 32.5l19 24.5t10 10q7 0 27 -14.5l42 -31.5q26 -20 55 -45q6 -7 11 -7
t13 10l42 56l30.5 38.5t18.5 17.5zM722 -366q0 -6 -13 -29.5t-30 -49.5t-33.5 -46.5t-22.5 -20.5q-2 0 -13 6.5t-25.5 16.5l-31 22.5l-30.5 23.5t-23 20t-9 12q0 4 6.5 16l16 28.5t21.5 34.5t23 32.5t19.5 24.5t11.5 10q6 0 27.5 -14t45 -32t42 -34.5t18.5 -20.5z" />
    <glyph glyph-name="uni0687.init" unicode="&#x687;" horiz-adv-x="1120" arabic-form="initial" 
d="M1038 445q0 -3 -3 -23.5t-7.5 -45.5l-8.5 -47t-6 -28q-1 -3 -27.5 -5.5t-72 -4t-106 -2t-129.5 -0.5q-47 0 -88.5 -15.5t-81.5 -40t-79 -55l-80 -60.5q-33 -24 -69 -45t-76.5 -37.5t-84.5 -26t-92 -9.5h-39q-19 0 -30 11.5t-16.5 28t-7 34t-1.5 29.5t1.5 29t7 33.5
t16.5 28t30 11.5h37q77 0 157 8.5t149 36.5q19 8 40 18.5l42 20.5t42 18.5t40 12.5q-21 8 -54.5 24t-73.5 31.5t-83.5 27t-83.5 11.5q-21 0 -41.5 -6.5t-37 -15t-28 -15t-12.5 -6.5q-2 0 -7 2t-10 4.5t-9.5 5t-4.5 4.5q0 20 7 44.5t19.5 49.5t30.5 47.5t40 37.5q25 17 55 29
t78 12q31 0 72.5 -15t85.5 -35l88 -39.5t79 -27.5q54 -13 117.5 -23t141.5 -14q24 -1 54 -2t57 -1.5t45 -2t18 -2.5zM610 -70q6 0 27 -14t44 -31.5t41 -33.5t18 -20q0 -6 -12.5 -29.5t-29 -49t-32 -45.5t-21.5 -20q-3 0 -23 14l-43 31l-59 46q-8 6 -13 6q-2 0 -9 -9l-41 -58
q-16 -22 -30.5 -39.5t-19.5 -17.5q-2 0 -12.5 6.5t-25.5 17t-31 23l-30 23.5t-23 19t-9 11q0 4 6.5 16l16 28.5t21.5 34.5l22.5 33t18.5 25t11 10q7 0 27.5 -14.5t41.5 -31.5q25 -20 54 -46q7 -6 12 -6q4 0 13 10q24 30 42 55l30 38.5t18 17.5zM637 -321q6 0 27 -14t44 -32
t41 -34t18 -20q0 -6 -13 -29t-29.5 -48.5t-32 -46t-20.5 -20.5q-3 0 -23 14.5l-43 31.5l-59 46q-8 5 -14 5q-2 0 -3.5 -2.5t-4.5 -5.5l-41 -58q-16 -22 -30.5 -39.5t-19.5 -17.5q-4 0 -25 14t-44.5 31.5t-42.5 33.5t-19 20q0 6 13.5 29.5t30.5 50t32.5 47t18.5 20.5
q7 0 27 -14.5l42 -31.5q26 -20 55 -45q7 -7 11 -7q5 0 14 10l41 56l30.5 38.5t18.5 17.5z" />
    <glyph glyph-name="uni0687.medi" unicode="&#x687;" horiz-adv-x="1095" arabic-form="medial" 
d="M1162 103q0 -12 -1.5 -29.5t-7 -34t-16.5 -28t-30 -11.5h-37q-117 0 -206.5 11t-134.5 42q-59 40 -59 124q0 10 2 24t6 29.5t8.5 31t9.5 27.5h-18q-47 0 -88.5 -15.5t-81.5 -40t-79 -55l-80 -60.5q-33 -24 -69 -45t-76.5 -37.5t-85 -26t-93.5 -9.5h-37q-19 0 -30 11.5
t-16.5 28t-7 34t-1.5 29.5t1.5 29t7 33.5t16.5 28t30 11.5h37q100 0 173.5 10.5t132.5 34.5q18 7 38.5 17.5l42 21t43 19t40.5 12.5q-21 8 -54.5 24t-73.5 31.5t-83.5 27t-83.5 11.5q-21 0 -41.5 -6.5t-37 -15t-28 -15t-12.5 -6.5q-2 0 -7.5 2t-10.5 4.5t-9 5t-4 4.5
q0 20 7 44.5t19.5 49.5t30.5 47.5t40 37.5q25 17 55 29t78 12q31 0 72.5 -15t85.5 -35l88 -39.5t79 -27.5q81 -19 192 -31t230 -12q5 0 7.5 -4.5t2.5 -9.5q0 -2 -3 -20.5t-7 -41l-8 -43.5t-6 -27q-1 -3 -26.5 -6t-62 -4.5t-78.5 -2.5t-77 -1q-1 -2 -1 -6v-7q0 -14 11 -25
t28 -19q22 -9 56 -14.5t71 -7.5t73 -2.5t63 -0.5h37q19 0 30 -11.5t16.5 -28t7 -33.5t1.5 -29zM631 -80q6 0 27 -14t44 -31.5t41 -33.5t18 -20q0 -6 -12.5 -29.5t-29 -49t-32 -45.5t-21.5 -20q-3 0 -23 14l-43 31l-59 46q-8 6 -13 6q-2 0 -9 -9l-41 -58q-16 -22 -30.5 -39.5
t-19.5 -17.5q-2 0 -12.5 6.5t-25.5 17t-31 23l-30 23.5t-23 19t-9 11q0 4 6.5 16l16 28.5t21.5 34.5l22.5 33t18.5 25t11 10q7 0 27.5 -14.5t41.5 -31.5q25 -20 54 -46q7 -6 12 -6q4 0 13 10q24 30 42 55l30 38.5t18 17.5zM658 -331q6 0 27 -14t44 -32t41 -34t18 -20
q0 -6 -13 -29t-29.5 -48.5t-32 -46t-20.5 -20.5q-3 0 -23 14.5l-43 31.5l-59 46q-8 5 -14 5q-2 0 -3.5 -2.5t-4.5 -5.5l-41 -58q-16 -22 -30.5 -39.5t-19.5 -17.5q-4 0 -25 14t-44.5 31.5t-42.5 33.5t-19 20q0 6 13.5 29.5t30.5 50t32.5 47t18.5 20.5q7 0 27 -14.5l42 -31.5
q26 -20 55 -45q7 -7 11 -7q5 0 14 10l41 56l30.5 38.5t18.5 17.5z" />
    <glyph glyph-name="uni0687.fina" unicode="&#x687;" horiz-adv-x="1112" arabic-form="final" 
d="M1101 -593q0 -5 -22.5 -17.5t-58 -29.5t-79 -35.5l-84.5 -35t-75.5 -28.5t-51.5 -16q-40 -9 -70.5 -10.5t-47.5 -1.5q-104 0 -205.5 26.5t-182 83.5t-130 146.5t-49.5 214.5q0 99 35.5 185.5t94.5 159t134 131t155 101.5q-54 17 -100.5 23t-84.5 6t-67.5 -4.5t-51 -10
t-34.5 -10t-19 -4.5q-2 0 -11 6.5t-9 11.5q0 13 4 34.5t8.5 43.5t8.5 39.5t5 21.5q1 5 21.5 17.5t52 25t70 22.5t76.5 10q69 0 116.5 -7.5t91 -16.5t91 -16.5t117.5 -7.5q16 0 41.5 1t53 2.5t55 2.5t47.5 1q17 0 28 -1.5t11 -3.5t-4.5 -13l-11 -26.5l-14.5 -33.5t-15.5 -33
t-13 -25t-6.5 -10q-10 -2 -27 -4.5l-37 -5.5t-41 -6.5l-39 -6.5q1 -26 11.5 -44.5t43 -30.5t93.5 -17.5t163 -5.5h37q11 0 21 -2t17.5 -12t12 -29.5t4.5 -54.5q0 -63 -16 -85t-39 -22h-117q-76 0 -133.5 2t-103.5 16q-39 11 -60 43t-21 89q0 23 6.5 59t14.5 73
q-120 -31 -224 -81.5t-180 -115.5t-119.5 -143t-43.5 -164q0 -95 45.5 -163t132.5 -112t214 -64.5t290 -20.5q54 0 100 3.5t80.5 8t56.5 8.5t28 4q1 0 3 -5t4 -11.5t3 -12t1 -6.5zM654 38q6 0 27 -14t44 -31.5t41 -33.5t18 -20q0 -6 -12.5 -29.5t-29 -49t-32 -45.5
t-21.5 -20q-3 0 -23 14l-43 31l-59 46q-8 6 -13 6q-2 0 -9 -9l-41 -58q-16 -22 -30.5 -39.5t-19.5 -17.5q-2 0 -12.5 6.5t-25.5 17t-31 23l-30 23.5t-23 19t-9 11q0 4 6.5 16l16 28.5t21.5 34.5l22.5 33t18.5 25t11 10q7 0 27.5 -14.5t41.5 -31.5q25 -20 54 -46q7 -6 12 -6
q4 0 13 10q24 30 42 55l30 38.5t18 17.5zM681 -213q6 0 27 -14t44 -32t41 -34t18 -20q0 -6 -13 -29t-29.5 -48.5t-32 -46t-20.5 -20.5q-3 0 -23 14.5l-43 31.5l-59 46q-8 5 -14 5q-2 0 -3.5 -2.5t-4.5 -5.5l-41 -58q-16 -22 -30.5 -39.5t-19.5 -17.5q-4 0 -25 14t-44.5 31.5
t-42.5 33.5t-19 20q0 6 13.5 29.5t30.5 50t32.5 47t18.5 20.5q7 0 27 -14.5l42 -31.5q26 -20 55 -45q7 -7 11 -7q5 0 14 10l41 56l30.5 38.5t18.5 17.5z" />
    <glyph glyph-name="uni06BF.init" unicode="&#x6bf;" horiz-adv-x="1120" 
d="M1038 445q0 -3 -3 -23.5t-7.5 -45.5l-8.5 -47t-6 -28q-1 -3 -27.5 -5.5t-72 -4t-106 -2t-129.5 -0.5q-47 0 -88.5 -15.5t-81.5 -40t-79 -55l-80 -60.5q-33 -24 -69 -45t-76.5 -37.5t-84.5 -26t-92 -9.5h-39q-19 0 -30 11.5t-16.5 28t-7 34t-1.5 29.5t1.5 29t7 33.5
t16.5 28t30 11.5h37q77 0 157 8.5t149 36.5q19 8 40 18.5l42 20.5t42 18.5t40 12.5q-21 8 -54.5 24t-73.5 31.5t-83.5 27t-83.5 11.5q-21 0 -41.5 -6.5t-37 -15t-28 -15t-12.5 -6.5q-2 0 -7 2t-10 4.5t-9.5 5t-4.5 4.5q0 20 7 44.5t19.5 49.5t30.5 47.5t40 37.5q25 17 55 29
t78 12q31 0 72.5 -15t85.5 -35l88 -39.5t79 -27.5q54 -13 117.5 -23t141.5 -14q24 -1 54 -2t57 -1.5t45 -2t18 -2.5zM654 865q0 -4 -6.5 -16.5t-16.5 -29.5t-22.5 -36t-24 -34.5t-21.5 -26t-14 -10.5q-3 0 -25.5 14.5t-47.5 33t-45.5 36t-20.5 22.5q0 4 6.5 17t17 30l23 36
t24 34.5t20.5 26t13 10.5q6 0 28.5 -15t47.5 -33.5t44.5 -36t19.5 -22.5zM630 -75q6 0 27 -14t44 -32t41 -34t18 -20q0 -6 -13 -29t-29.5 -48.5t-32 -46t-20.5 -20.5q-4 0 -23.5 14.5l-42.5 31.5l-60 46q-7 5 -13 5q-3 0 -8 -8l-41 -58q-16 -22 -31 -39.5t-20 -17.5
q-2 0 -12.5 6.5t-25.5 17l-31 22.5l-30 23t-23 19.5t-9 11.5q0 4 6.5 16t16.5 28.5l21.5 34.5t22.5 32.5l19 24.5t10 10q7 0 27 -14.5l42 -31.5q26 -20 55 -45q6 -7 11 -7t13 10l42 56l30.5 38.5t18.5 17.5zM673 -438q0 -6 -13 -29.5t-30 -49.5t-33.5 -46.5t-22.5 -20.5
q-2 0 -13 6.5t-25.5 16.5l-31 22.5l-30.5 23.5t-23 20t-9 12q0 4 6.5 16l16 28.5t21.5 34.5t23 32.5t19.5 24.5t11.5 10q6 0 27.5 -14t45 -32t42 -34.5t18.5 -20.5z" />
    <glyph glyph-name="uni06BF.medi" unicode="&#x6bf;" horiz-adv-x="1095" 
d="M1162 103q0 -12 -1.5 -29.5t-7 -34t-16.5 -28t-30 -11.5h-37q-117 0 -206.5 11t-134.5 42q-59 40 -59 124q0 10 2 24t6 29.5t8.5 31t9.5 27.5h-18q-47 0 -88.5 -15.5t-81.5 -40t-79 -55l-80 -60.5q-33 -24 -69 -45t-76.5 -37.5t-85 -26t-93.5 -9.5h-37q-19 0 -30 11.5
t-16.5 28t-7 34t-1.5 29.5t1.5 29t7 33.5t16.5 28t30 11.5h37q100 0 173.5 10.5t132.5 34.5q18 7 38.5 17.5l42 21t43 19t40.5 12.5q-21 8 -54.5 24t-73.5 31.5t-83.5 27t-83.5 11.5q-21 0 -41.5 -6.5t-37 -15t-28 -15t-12.5 -6.5q-2 0 -7.5 2t-10.5 4.5t-9 5t-4 4.5
q0 20 7 44.5t19.5 49.5t30.5 47.5t40 37.5q25 17 55 29t78 12q31 0 72.5 -15t85.5 -35l88 -39.5t79 -27.5q81 -19 192 -31t230 -12q5 0 7.5 -4.5t2.5 -9.5q0 -2 -3 -20.5t-7 -41l-8 -43.5t-6 -27q-1 -3 -26.5 -6t-62 -4.5t-78.5 -2.5t-77 -1q-1 -2 -1 -6v-7q0 -14 11 -25
t28 -19q22 -9 56 -14.5t71 -7.5t73 -2.5t63 -0.5h37q19 0 30 -11.5t16.5 -28t7 -33.5t1.5 -29zM676 840q0 -4 -6.5 -16.5t-16.5 -29.5t-22.5 -36t-24 -34.5t-21.5 -26t-14 -10.5q-3 0 -25.5 14.5t-47.5 33t-45.5 36t-20.5 22.5q0 4 6.5 17t17 30l23 36t24 34.5t20.5 26
t13 10.5q6 0 28.5 -15t47.5 -33.5t44.5 -36t19.5 -22.5zM645 -72q6 0 27 -14t44 -32t41 -34t18 -20q0 -6 -13 -29t-29.5 -48.5t-32 -46t-20.5 -20.5q-4 0 -23.5 14.5l-42.5 31.5l-60 46q-7 5 -13 5q-3 0 -8 -8l-41 -58q-16 -22 -31 -39.5t-20 -17.5q-2 0 -12.5 6.5t-25.5 17
l-31 22.5l-30 23t-23 19.5t-9 11.5q0 4 6.5 16t16.5 28.5l21.5 34.5t22.5 32.5l19 24.5t10 10q7 0 27 -14.5l42 -31.5q26 -20 55 -45q6 -7 11 -7t13 10l42 56l30.5 38.5t18.5 17.5zM688 -435q0 -6 -13 -29.5t-30 -49.5t-33.5 -46.5t-22.5 -20.5q-2 0 -13 6.5t-25.5 16.5
l-31 22.5l-30.5 23.5t-23 20t-9 12q0 4 6.5 16l16 28.5t21.5 34.5t23 32.5t19.5 24.5t11.5 10q6 0 27.5 -14t45 -32t42 -34.5t18.5 -20.5z" />
    <glyph glyph-name="uni06BF.fina" unicode="&#x6bf;" horiz-adv-x="1112" 
d="M1101 -593q0 -5 -22.5 -17.5t-58 -29.5t-79 -35.5l-84.5 -35t-75.5 -28.5t-51.5 -16q-40 -9 -70.5 -10.5t-47.5 -1.5q-104 0 -205.5 26.5t-182 83.5t-130 146.5t-49.5 214.5q0 99 35.5 185.5t94.5 159t134 131t155 101.5q-54 17 -100.5 23t-84.5 6t-67.5 -4.5t-51 -10
t-34.5 -10t-19 -4.5q-2 0 -11 6.5t-9 11.5q0 13 4 34.5t8.5 43.5t8.5 39.5t5 21.5q1 5 21.5 17.5t52 25t70 22.5t76.5 10q69 0 116.5 -7.5t91 -16.5t91 -16.5t117.5 -7.5q16 0 41.5 1t53 2.5t55 2.5t47.5 1q17 0 28 -1.5t11 -3.5t-4.5 -13l-11 -26.5l-14.5 -33.5t-15.5 -33
t-13 -25t-6.5 -10q-10 -2 -27 -4.5l-37 -5.5t-41 -6.5l-39 -6.5q1 -26 11.5 -44.5t43 -30.5t93.5 -17.5t163 -5.5h37q11 0 21 -2t17.5 -12t12 -29.5t4.5 -54.5q0 -63 -16 -85t-39 -22h-117q-76 0 -133.5 2t-103.5 16q-39 11 -60 43t-21 89q0 23 6.5 59t14.5 73
q-120 -31 -224 -81.5t-180 -115.5t-119.5 -143t-43.5 -164q0 -95 45.5 -163t132.5 -112t214 -64.5t290 -20.5q54 0 100 3.5t80.5 8t56.5 8.5t28 4q1 0 3 -5t4 -11.5t3 -12t1 -6.5zM679 -3q6 0 27 -14t44 -32t41 -34t18 -20q0 -6 -13 -29t-29.5 -48.5t-32 -46t-20.5 -20.5
q-4 0 -23.5 14.5l-42.5 31.5l-60 46q-7 5 -13 5q-3 0 -8 -8l-41 -58q-16 -22 -31 -39.5t-20 -17.5q-2 0 -12.5 6.5t-25.5 17l-31 22.5l-30 23t-23 19.5t-9 11.5q0 4 6.5 16t16.5 28.5l21.5 34.5t22.5 32.5l19 24.5t10 10q7 0 27 -14.5l42 -31.5q26 -20 55 -45q6 -7 11 -7
t13 10l42 56l30.5 38.5t18.5 17.5zM722 -366q0 -6 -13 -29.5t-30 -49.5t-33.5 -46.5t-22.5 -20.5q-2 0 -13 6.5t-25.5 16.5l-31 22.5l-30.5 23.5t-23 20t-9 12q0 4 6.5 16l16 28.5t21.5 34.5t23 32.5t19.5 24.5t11.5 10q6 0 27.5 -14t45 -32t42 -34.5t18.5 -20.5zM728 763
q0 -4 -6.5 -16.5t-16.5 -29.5t-22.5 -36t-24 -34.5t-21.5 -26t-14 -10.5q-3 0 -25.5 14.5t-47.5 33t-45.5 36t-20.5 22.5q0 4 6.5 17t17 30l23 36t24 34.5t20.5 26t13 10.5q6 0 28.5 -15t47.5 -33.5t44.5 -36t19.5 -22.5z" />
    <glyph glyph-name="uni0633.init" unicode="&#x633;" horiz-adv-x="1074" arabic-form="initial" 
d="M971 401q0 -20 -3.5 -52t-12 -68.5t-21.5 -73.5t-32.5 -67t-46 -48.5t-60.5 -18.5q-28 0 -53 11t-46 28.5t-38 40t-29 45.5q-17 -30 -38.5 -64.5t-49 -64t-60.5 -48.5t-73 -19q-31 0 -58.5 11.5t-50 29t-38 39t-22.5 42.5q-38 -57 -92.5 -90.5t-121.5 -33.5h-37
q-19 0 -30 11.5t-16.5 28t-7 34t-1.5 29.5t1.5 29t7 33.5t16.5 28t30 11.5h37q54 0 93.5 10t67 24.5t45.5 32t29.5 32l19 24.5t13.5 10q12 0 18 -10t11 -24.5l10.5 -31.5t16 -31.5t28 -24.5t46.5 -10q49 0 89.5 19.5t69.5 50.5t46 69.5t21 77.5q1 8 5.5 14.5t15.5 6.5
q14 0 22 -25q23 -74 67.5 -110t93.5 -36q22 0 35.5 10.5t13.5 24.5t-12 24.5t-27 18t-27 11.5t-12 6t3 19t8 41.5t12 52.5t14.5 51.5t15 39t14.5 15.5q8 0 21.5 -17.5t26.5 -44.5t22.5 -60t9.5 -64z" />
    <glyph glyph-name="uni0633.medi" unicode="&#x633;" horiz-adv-x="1099" arabic-form="medial" 
d="M1165 93v-28t-4 -30.5t-13 -24.5t-28 -10h-37q-77 0 -126 46.5t-78 131.5q-27 -72 -61.5 -112.5t-91.5 -40.5q-54 0 -82.5 28.5t-40.5 79.5q-38 -68 -84.5 -99.5t-120.5 -31.5q-24 0 -46.5 6t-43.5 20t-38.5 37.5t-30.5 58.5q-19 -36 -45 -59.5t-55 -38t-58.5 -20.5
t-55.5 -6h-37q-19 0 -30 10t-16.5 24.5t-7 30.5t-1.5 28t1.5 31t7 37t16.5 31t30 13h37q53 0 91 12t64 30t42.5 39.5t27.5 39.5t17.5 30t12.5 12q12 0 17.5 -12t9.5 -29.5t9.5 -38t18 -38t35 -29.5t60.5 -12q41 0 72.5 13.5t55 33.5t40 43t28 43t18.5 33.5t12 13.5
q17 0 22.5 -6t6.5 -21q0 -8 2 -26.5t9.5 -38t22 -34.5t41.5 -15q36 0 60 22.5t39 50t23.5 50t14.5 22.5q28 0 28 -23q0 -17 10 -45t29.5 -54.5t49 -46t69.5 -19.5h37q19 0 28 -13t13 -31t4 -37v-31z" />
    <glyph glyph-name="uni0633.fina" unicode="&#x633;" horiz-adv-x="1550" arabic-form="final" 
d="M1617 103q0 -24 -1.5 -43t-7 -32.5t-16.5 -20.5t-30 -7h-37q-77 0 -126 46.5t-78 131.5q-27 -72 -61.5 -112.5t-91.5 -40.5q-54 0 -82.5 28.5t-40.5 79.5q-38 -68 -83.5 -100t-115.5 -33q-3 -40 -7.5 -79.5t-12.5 -75.5q-22 -96 -75.5 -162.5t-124.5 -107.5t-154 -59
t-164 -18q-84 0 -138 24.5t-85.5 63.5t-43.5 88t-12 98q0 59 19.5 119t43.5 109t44.5 79.5t23.5 30.5t9 -2.5t12 -6.5t10.5 -7.5t4.5 -5.5q0 -6 -12.5 -25.5t-27.5 -49t-27.5 -66.5t-12.5 -77q0 -30 12 -59.5t39 -53t70 -38t104 -14.5q135 0 233 18.5t149 65.5q50 47 50 121
q0 47 -10.5 84.5t-23 65t-23 45t-10.5 25.5q0 4 7 20.5l17 38.5l22.5 47.5t24 46.5l19.5 35t11 14q10 -7 19 -24t16.5 -36.5t13 -38t8.5 -29.5q43 0 75.5 13.5t57 34.5t42 44.5t29 44.5l18.5 34.5t12 13.5q18 0 23 -6t6 -21q0 -8 2 -26.5t9.5 -38t22 -34.5t41.5 -15
q36 0 60 22.5t39 50t23.5 50t14.5 22.5q28 0 28 -23q0 -17 10 -45t29.5 -54.5t49 -46t69.5 -19.5h37q19 0 30 -4.5t16.5 -16t7 -31.5t1.5 -50z" />
    <glyph glyph-name="uni0634.init" unicode="&#x634;" horiz-adv-x="1074" arabic-form="initial" 
d="M971 401q0 -20 -3.5 -52t-12 -68.5t-21.5 -73.5t-32.5 -67t-46 -48.5t-60.5 -18.5q-28 0 -53 11t-46 28.5t-38 40t-29 45.5q-17 -30 -38.5 -64.5t-49 -64t-60.5 -48.5t-73 -19q-31 0 -58.5 11.5t-50 29t-38 39t-22.5 42.5q-38 -57 -92.5 -90.5t-121.5 -33.5h-37
q-19 0 -30 11.5t-16.5 28t-7 34t-1.5 29.5t1.5 29t7 33.5t16.5 28t30 11.5h37q54 0 93.5 10t67 24.5t45.5 32t29.5 32l19 24.5t13.5 10q12 0 18 -10t11 -24.5l10.5 -31.5t16 -31.5t28 -24.5t46.5 -10q49 0 89.5 19.5t69.5 50.5t46 69.5t21 77.5q1 8 5.5 14.5t15.5 6.5
q14 0 22 -25q23 -74 67.5 -110t93.5 -36q22 0 35.5 10.5t13.5 24.5t-12 24.5t-27 18t-27 11.5t-12 6t3 19t8 41.5t12 52.5t14.5 51.5t15 39t14.5 15.5q8 0 21.5 -17.5t26.5 -44.5t22.5 -60t9.5 -64zM383 935q0 6 13 29.5t30 49.5t33.5 46.5t22.5 20.5q2 0 13 -6.5
t25.5 -16.5l31 -22.5l30.5 -23.5t23 -20t9 -12q0 -4 -6.5 -16l-16 -28.5t-21.5 -34.5t-23 -32.5t-19.5 -24.5t-11.5 -10q-6 0 -27.5 14t-45 32t-42 34t-18.5 21zM426 572q-6 0 -27 14t-44 32t-41 34t-18 20q0 6 13 29t29.5 48.5t32 46t20.5 20.5q3 0 23 -14.5l43 -31.5
l60 -46q7 -5 13 -5q3 0 8 8l41 57q16 22 31 40t20 18q2 0 12.5 -6.5t25.5 -17l31 -22.5l30 -23t23 -19.5t9 -11.5q0 -4 -6.5 -16t-16.5 -28.5l-21.5 -34.5t-22.5 -32.5l-19 -24.5t-10 -10q-8 0 -27.5 14l-41.5 31q-26 20 -55 46q-6 7 -11 7q-6 0 -13 -10l-42 -56l-31 -38.5
t-18 -17.5z" />
    <glyph glyph-name="uni0634.medi" unicode="&#x634;" horiz-adv-x="1099" arabic-form="medial" 
d="M1165 93v-28t-4 -30.5t-13 -24.5t-28 -10h-37q-77 0 -126 46.5t-78 131.5q-27 -72 -61.5 -112.5t-91.5 -40.5q-54 0 -82.5 28.5t-40.5 79.5q-38 -68 -84.5 -99.5t-120.5 -31.5q-24 0 -46.5 6t-43.5 20t-38.5 37.5t-30.5 58.5q-19 -36 -45 -59.5t-55 -38t-58.5 -20.5
t-55.5 -6h-37q-19 0 -30 10t-16.5 24.5t-7 30.5t-1.5 28t1.5 31t7 37t16.5 31t30 13h37q53 0 91 12t64 30t42.5 39.5t27.5 39.5t17.5 30t12.5 12q12 0 17.5 -12t9.5 -29.5t9.5 -38t18 -38t35 -29.5t60.5 -12q41 0 72.5 13.5t55 33.5t40 43t28 43t18.5 33.5t12 13.5
q17 0 22.5 -6t6.5 -21q0 -8 2 -26.5t9.5 -38t22 -34.5t41.5 -15q36 0 60 22.5t39 50t23.5 50t14.5 22.5q28 0 28 -23q0 -17 10 -45t29.5 -54.5t49 -46t69.5 -19.5h37q19 0 28 -13t13 -31t4 -37v-31zM428 847q0 6 13 29.5t30 49.5t33.5 46.5t22.5 20.5q2 0 13 -6.5
t25.5 -16.5l31 -22.5l30.5 -23.5t23 -20t9 -12q0 -4 -6.5 -16l-16 -28.5t-21.5 -34.5t-23 -32.5t-19.5 -24.5t-11.5 -10q-6 0 -27.5 14t-45 32t-42 34t-18.5 21zM471 484q-6 0 -27 14t-44 32t-41 34t-18 20q0 6 13 29t29.5 48.5t32 46t20.5 20.5q3 0 23 -14.5l43 -31.5
l60 -46q7 -5 13 -5q3 0 8 8l41 57q16 22 31 40t20 18q2 0 12.5 -6.5t25.5 -17l31 -22.5l30 -23t23 -19.5t9 -11.5q0 -4 -6.5 -16t-16.5 -28.5l-21.5 -34.5t-22.5 -32.5l-19 -24.5t-10 -10q-8 0 -27.5 14l-41.5 31q-26 20 -55 46q-6 7 -11 7q-6 0 -13 -10l-42 -56l-31 -38.5
t-18 -17.5z" />
    <glyph glyph-name="uni0634.fina" unicode="&#x634;" horiz-adv-x="1550" arabic-form="final" 
d="M1617 103q0 -24 -1.5 -43t-7 -32.5t-16.5 -20.5t-30 -7h-37q-77 0 -126 46.5t-78 131.5q-27 -72 -61.5 -112.5t-91.5 -40.5q-54 0 -82.5 28.5t-40.5 79.5q-38 -68 -83.5 -100t-115.5 -33q-3 -40 -7.5 -79.5t-12.5 -75.5q-22 -96 -75.5 -162.5t-124.5 -107.5t-154 -59
t-164 -18q-84 0 -138 24.5t-85.5 63.5t-43.5 88t-12 98q0 59 19.5 119t43.5 109t44.5 79.5t23.5 30.5t9 -2.5t12 -6.5t10.5 -7.5t4.5 -5.5q0 -6 -12.5 -25.5t-27.5 -49t-27.5 -66.5t-12.5 -77q0 -30 12 -59.5t39 -53t70 -38t104 -14.5q135 0 233 18.5t149 65.5q50 47 50 121
q0 47 -10.5 84.5t-23 65t-23 45t-10.5 25.5q0 4 7 20.5l17 38.5l22.5 47.5t24 46.5l19.5 35t11 14q10 -7 19 -24t16.5 -36.5t13 -38t8.5 -29.5q43 0 75.5 13.5t57 34.5t42 44.5t29 44.5l18.5 34.5t12 13.5q18 0 23 -6t6 -21q0 -8 2 -26.5t9.5 -38t22 -34.5t41.5 -15
q36 0 60 22.5t39 50t23.5 50t14.5 22.5q28 0 28 -23q0 -17 10 -45t29.5 -54.5t49 -46t69.5 -19.5h37q19 0 30 -4.5t16.5 -16t7 -31.5t1.5 -50zM932 883q0 6 13 29.5t30 49.5t33.5 46.5t22.5 20.5q2 0 13 -6.5t25.5 -16.5l31 -22.5l30.5 -23.5t23 -20t9 -12q0 -4 -6.5 -16
l-16 -28.5t-21.5 -34.5t-23 -32.5t-19.5 -24.5t-11.5 -10q-6 0 -27.5 14t-45 32t-42 34t-18.5 21zM975 520q-6 0 -27 14t-44 32t-41 34t-18 20q0 6 13 29t29.5 48.5t32 46t20.5 20.5q3 0 23 -14.5l43 -31.5l60 -46q7 -5 13 -5q3 0 8 8l41 57q16 22 31 40t20 18
q2 0 12.5 -6.5t25.5 -17l31 -22.5l30 -23t23 -19.5t9 -11.5q0 -4 -6.5 -16t-16.5 -28.5l-21.5 -34.5t-22.5 -32.5l-19 -24.5t-10 -10q-8 0 -27.5 14l-41.5 31q-26 20 -55 46q-6 7 -11 7q-6 0 -13 -10l-42 -56l-31 -38.5t-18 -17.5z" />
    <glyph glyph-name="uni069A.init" unicode="&#x69a;" horiz-adv-x="1074" 
d="M971 401q0 -20 -3.5 -52t-12 -68.5t-21.5 -73.5t-32.5 -67t-46 -48.5t-60.5 -18.5q-28 0 -53 11t-46 28.5t-38 40t-29 45.5q-17 -30 -38.5 -64.5t-49 -64t-60.5 -48.5t-73 -19q-31 0 -58.5 11.5t-50 29t-38 39t-22.5 42.5q-38 -57 -92.5 -90.5t-121.5 -33.5h-37
q-19 0 -30 11.5t-16.5 28t-7 34t-1.5 29.5t1.5 29t7 33.5t16.5 28t30 11.5h37q54 0 93.5 10t67 24.5t45.5 32t29.5 32l19 24.5t13.5 10q12 0 18 -10t11 -24.5l10.5 -31.5t16 -31.5t28 -24.5t46.5 -10q49 0 89.5 19.5t69.5 50.5t46 69.5t21 77.5q1 8 5.5 14.5t15.5 6.5
q14 0 22 -25q23 -74 67.5 -110t93.5 -36q22 0 35.5 10.5t13.5 24.5t-12 24.5t-27 18t-27 11.5t-12 6t3 19t8 41.5t12 52.5t14.5 51.5t15 39t14.5 15.5q8 0 21.5 -17.5t26.5 -44.5t22.5 -60t9.5 -64zM687 767q0 -4 -6.5 -16.5t-16.5 -29.5t-22.5 -36t-24 -34.5t-21.5 -26
t-14 -10.5q-3 0 -25.5 14.5t-47.5 33t-45.5 36t-20.5 22.5q0 4 6.5 17t17 30l23 36t24 34.5t20.5 26t13 10.5q6 0 28.5 -15t47.5 -33.5t44.5 -36t19.5 -22.5zM691 -216q0 -4 -6.5 -16.5t-16.5 -29.5t-22.5 -36t-24 -34.5t-21.5 -26t-14 -10.5q-3 0 -25.5 14.5t-47.5 33
t-45.5 36t-20.5 22.5q0 4 6.5 17t17 30l23 36t24 34.5t20.5 26t13 10.5q6 0 28.5 -15t47.5 -33.5t44.5 -36t19.5 -22.5z" />
    <glyph glyph-name="uni069A.medi" unicode="&#x69a;" horiz-adv-x="1099" 
d="M1165 93v-28t-4 -30.5t-13 -24.5t-28 -10h-37q-77 0 -126 46.5t-78 131.5q-27 -72 -61.5 -112.5t-91.5 -40.5q-54 0 -82.5 28.5t-40.5 79.5q-38 -68 -84.5 -99.5t-120.5 -31.5q-24 0 -46.5 6t-43.5 20t-38.5 37.5t-30.5 58.5q-19 -36 -45 -59.5t-55 -38t-58.5 -20.5
t-55.5 -6h-37q-19 0 -30 10t-16.5 24.5t-7 30.5t-1.5 28t1.5 31t7 37t16.5 31t30 13h37q53 0 91 12t64 30t42.5 39.5t27.5 39.5t17.5 30t12.5 12q12 0 17.5 -12t9.5 -29.5t9.5 -38t18 -38t35 -29.5t60.5 -12q41 0 72.5 13.5t55 33.5t40 43t28 43t18.5 33.5t12 13.5
q17 0 22.5 -6t6.5 -21q0 -8 2 -26.5t9.5 -38t22 -34.5t41.5 -15q36 0 60 22.5t39 50t23.5 50t14.5 22.5q28 0 28 -23q0 -17 10 -45t29.5 -54.5t49 -46t69.5 -19.5h37q19 0 28 -13t13 -31t4 -37v-31zM668 643q0 -4 -6.5 -16.5t-16.5 -29.5t-22.5 -36t-24 -34.5t-21.5 -26
t-14 -10.5q-3 0 -25.5 14.5t-47.5 33t-45.5 36t-20.5 22.5q0 4 6.5 17t17 30l23 36t24 34.5t20.5 26t13 10.5q6 0 28.5 -15t47.5 -33.5t44.5 -36t19.5 -22.5zM662 -213q0 -4 -6.5 -16.5t-16.5 -29.5t-22.5 -36t-24 -34.5t-21.5 -26t-14 -10.5q-3 0 -25.5 14.5t-47.5 33
t-45.5 36t-20.5 22.5q0 4 6.5 17t17 30l23 36t24 34.5t20.5 26t13 10.5q6 0 28.5 -15t47.5 -33.5t44.5 -36t19.5 -22.5z" />
    <glyph glyph-name="uni069A.fina" unicode="&#x69a;" horiz-adv-x="1550" 
d="M1617 103q0 -24 -1.5 -43t-7 -32.5t-16.5 -20.5t-30 -7h-37q-77 0 -126 46.5t-78 131.5q-27 -72 -61.5 -112.5t-91.5 -40.5q-54 0 -82.5 28.5t-40.5 79.5q-38 -68 -83.5 -100t-115.5 -33q-3 -40 -7.5 -79.5t-12.5 -75.5q-22 -96 -75.5 -162.5t-124.5 -107.5t-154 -59
t-164 -18q-84 0 -138 24.5t-85.5 63.5t-43.5 88t-12 98q0 59 19.5 119t43.5 109t44.5 79.5t23.5 30.5t9 -2.5t12 -6.5t10.5 -7.5t4.5 -5.5q0 -6 -12.5 -25.5t-27.5 -49t-27.5 -66.5t-12.5 -77q0 -30 12 -59.5t39 -53t70 -38t104 -14.5q135 0 233 18.5t149 65.5q50 47 50 121
q0 47 -10.5 84.5t-23 65t-23 45t-10.5 25.5q0 4 7 20.5l17 38.5l22.5 47.5t24 46.5l19.5 35t11 14q10 -7 19 -24t16.5 -36.5t13 -38t8.5 -29.5q43 0 75.5 13.5t57 34.5t42 44.5t29 44.5l18.5 34.5t12 13.5q18 0 23 -6t6 -21q0 -8 2 -26.5t9.5 -38t22 -34.5t41.5 -15
q36 0 60 22.5t39 50t23.5 50t14.5 22.5q28 0 28 -23q0 -17 10 -45t29.5 -54.5t49 -46t69.5 -19.5h37q19 0 30 -4.5t16.5 -16t7 -31.5t1.5 -50zM1172 639q0 -4 -6.5 -16.5t-16.5 -29.5t-22.5 -36t-24 -34.5t-21.5 -26t-14 -10.5q-3 0 -25.5 14.5t-47.5 33t-45.5 36
t-20.5 22.5q0 4 6.5 17t17 30l23 36t24 34.5t20.5 26t13 10.5q6 0 28.5 -15t47.5 -33.5t44.5 -36t19.5 -22.5zM1251 -208q0 -4 -6.5 -16.5t-16.5 -29.5t-22.5 -36t-24 -34.5t-21.5 -26t-14 -10.5q-3 0 -25.5 14.5t-47.5 33t-45.5 36t-20.5 22.5q0 4 6.5 17t17 30l23 36
t24 34.5t20.5 26t13 10.5q6 0 28.5 -15t47.5 -33.5t44.5 -36t19.5 -22.5z" />
    <glyph glyph-name="uni069B.init" unicode="&#x69b;" horiz-adv-x="1074" 
d="M971 401q0 -20 -3.5 -52t-12 -68.5t-21.5 -73.5t-32.5 -67t-46 -48.5t-60.5 -18.5q-28 0 -53 11t-46 28.5t-38 40t-29 45.5q-17 -30 -38.5 -64.5t-49 -64t-60.5 -48.5t-73 -19q-31 0 -58.5 11.5t-50 29t-38 39t-22.5 42.5q-38 -57 -92.5 -90.5t-121.5 -33.5h-37
q-19 0 -30 11.5t-16.5 28t-7 34t-1.5 29.5t1.5 29t7 33.5t16.5 28t30 11.5h37q54 0 93.5 10t67 24.5t45.5 32t29.5 32l19 24.5t13.5 10q12 0 18 -10t11 -24.5l10.5 -31.5t16 -31.5t28 -24.5t46.5 -10q49 0 89.5 19.5t69.5 50.5t46 69.5t21 77.5q1 8 5.5 14.5t15.5 6.5
q14 0 22 -25q23 -74 67.5 -110t93.5 -36q22 0 35.5 10.5t13.5 24.5t-12 24.5t-27 18t-27 11.5t-12 6t3 19t8 41.5t12 52.5t14.5 51.5t15 39t14.5 15.5q8 0 21.5 -17.5t26.5 -44.5t22.5 -60t9.5 -64zM677 -88q6 0 27 -14t44 -32t41 -34t18 -20q0 -6 -13 -29t-29.5 -48.5
t-32 -46t-20.5 -20.5q-4 0 -23.5 14.5l-42.5 31.5l-60 46q-7 5 -13 5q-3 0 -8 -8l-41 -58q-16 -22 -31 -39.5t-20 -17.5q-2 0 -12.5 6.5t-25.5 17l-31 22.5l-30 23t-23 19.5t-9 11.5q0 4 6.5 16t16.5 28.5l21.5 34.5t22.5 32.5l19 24.5t10 10q7 0 27 -14.5l42 -31.5
q26 -20 55 -45q6 -7 11 -7t13 10l42 56l30.5 38.5t18.5 17.5zM720 -451q0 -6 -13 -29.5t-30 -49.5t-33.5 -46.5t-22.5 -20.5q-2 0 -13 6.5t-25.5 16.5l-31 22.5l-30.5 23.5t-23 20t-9 12q0 4 6.5 16l16 28.5t21.5 34.5t23 32.5t19.5 24.5t11.5 10q6 0 27.5 -14t45 -32
t42 -34.5t18.5 -20.5z" />
    <glyph glyph-name="uni069B.medi" unicode="&#x69b;" horiz-adv-x="1099" 
d="M1165 93v-28t-4 -30.5t-13 -24.5t-28 -10h-37q-77 0 -126 46.5t-78 131.5q-27 -72 -61.5 -112.5t-91.5 -40.5q-54 0 -82.5 28.5t-40.5 79.5q-38 -68 -84.5 -99.5t-120.5 -31.5q-24 0 -46.5 6t-43.5 20t-38.5 37.5t-30.5 58.5q-19 -36 -45 -59.5t-55 -38t-58.5 -20.5
t-55.5 -6h-37q-19 0 -30 10t-16.5 24.5t-7 30.5t-1.5 28t1.5 31t7 37t16.5 31t30 13h37q53 0 91 12t64 30t42.5 39.5t27.5 39.5t17.5 30t12.5 12q12 0 17.5 -12t9.5 -29.5t9.5 -38t18 -38t35 -29.5t60.5 -12q41 0 72.5 13.5t55 33.5t40 43t28 43t18.5 33.5t12 13.5
q17 0 22.5 -6t6.5 -21q0 -8 2 -26.5t9.5 -38t22 -34.5t41.5 -15q36 0 60 22.5t39 50t23.5 50t14.5 22.5q28 0 28 -23q0 -17 10 -45t29.5 -54.5t49 -46t69.5 -19.5h37q19 0 28 -13t13 -31t4 -37v-31zM659 -72q6 0 27 -14t44 -32t41 -34t18 -20q0 -6 -13 -29t-29.5 -48.5
t-32 -46t-20.5 -20.5q-4 0 -23.5 14.5l-42.5 31.5l-60 46q-7 5 -13 5q-3 0 -8 -8l-41 -58q-16 -22 -31 -39.5t-20 -17.5q-2 0 -12.5 6.5t-25.5 17l-31 22.5l-30 23t-23 19.5t-9 11.5q0 4 6.5 16t16.5 28.5l21.5 34.5t22.5 32.5l19 24.5t10 10q7 0 27 -14.5l42 -31.5
q26 -20 55 -45q6 -7 11 -7t13 10l42 56l30.5 38.5t18.5 17.5zM702 -435q0 -6 -13 -29.5t-30 -49.5t-33.5 -46.5t-22.5 -20.5q-2 0 -13 6.5t-25.5 16.5l-31 22.5l-30.5 23.5t-23 20t-9 12q0 4 6.5 16l16 28.5t21.5 34.5t23 32.5t19.5 24.5t11.5 10q6 0 27.5 -14t45 -32
t42 -34.5t18.5 -20.5z" />
    <glyph glyph-name="uni069B.fina" unicode="&#x69b;" horiz-adv-x="1550" 
d="M1617 103q0 -24 -1.5 -43t-7 -32.5t-16.5 -20.5t-30 -7h-37q-77 0 -126 46.5t-78 131.5q-27 -72 -61.5 -112.5t-91.5 -40.5q-54 0 -82.5 28.5t-40.5 79.5q-38 -68 -83.5 -100t-115.5 -33q-3 -40 -7.5 -79.5t-12.5 -75.5q-22 -96 -75.5 -162.5t-124.5 -107.5t-154 -59
t-164 -18q-84 0 -138 24.5t-85.5 63.5t-43.5 88t-12 98q0 59 19.5 119t43.5 109t44.5 79.5t23.5 30.5t9 -2.5t12 -6.5t10.5 -7.5t4.5 -5.5q0 -6 -12.5 -25.5t-27.5 -49t-27.5 -66.5t-12.5 -77q0 -30 12 -59.5t39 -53t70 -38t104 -14.5q135 0 233 18.5t149 65.5q50 47 50 121
q0 47 -10.5 84.5t-23 65t-23 45t-10.5 25.5q0 4 7 20.5l17 38.5l22.5 47.5t24 46.5l19.5 35t11 14q10 -7 19 -24t16.5 -36.5t13 -38t8.5 -29.5q43 0 75.5 13.5t57 34.5t42 44.5t29 44.5l18.5 34.5t12 13.5q18 0 23 -6t6 -21q0 -8 2 -26.5t9.5 -38t22 -34.5t41.5 -15
q36 0 60 22.5t39 50t23.5 50t14.5 22.5q28 0 28 -23q0 -17 10 -45t29.5 -54.5t49 -46t69.5 -19.5h37q19 0 30 -4.5t16.5 -16t7 -31.5t1.5 -50zM1240 -95q6 0 27 -14t44 -32t41 -34t18 -20q0 -6 -13 -29t-29.5 -48.5t-32 -46t-20.5 -20.5q-4 0 -23.5 14.5l-42.5 31.5l-60 46
q-7 5 -13 5q-3 0 -8 -8l-41 -58q-16 -22 -31 -39.5t-20 -17.5q-2 0 -12.5 6.5t-25.5 17l-31 22.5l-30 23t-23 19.5t-9 11.5q0 4 6.5 16t16.5 28.5l21.5 34.5t22.5 32.5l19 24.5t10 10q7 0 27 -14.5l42 -31.5q26 -20 55 -45q6 -7 11 -7t13 10l42 56l30.5 38.5t18.5 17.5z
M1283 -458q0 -6 -13 -29.5t-30 -49.5t-33.5 -46.5t-22.5 -20.5q-2 0 -13 6.5t-25.5 16.5l-31 22.5l-30.5 23.5t-23 20t-9 12q0 4 6.5 16l16 28.5t21.5 34.5t23 32.5t19.5 24.5t11.5 10q6 0 27.5 -14t45 -32t42 -34.5t18.5 -20.5z" />
    <glyph glyph-name="uni069C.init" unicode="&#x69c;" horiz-adv-x="1074" 
d="M971 401q0 -20 -3.5 -52t-12 -68.5t-21.5 -73.5t-32.5 -67t-46 -48.5t-60.5 -18.5q-28 0 -53 11t-46 28.5t-38 40t-29 45.5q-17 -30 -38.5 -64.5t-49 -64t-60.5 -48.5t-73 -19q-31 0 -58.5 11.5t-50 29t-38 39t-22.5 42.5q-38 -57 -92.5 -90.5t-121.5 -33.5h-37
q-19 0 -30 11.5t-16.5 28t-7 34t-1.5 29.5t1.5 29t7 33.5t16.5 28t30 11.5h37q54 0 93.5 10t67 24.5t45.5 32t29.5 32l19 24.5t13.5 10q12 0 18 -10t11 -24.5l10.5 -31.5t16 -31.5t28 -24.5t46.5 -10q49 0 89.5 19.5t69.5 50.5t46 69.5t21 77.5q1 8 5.5 14.5t15.5 6.5
q14 0 22 -25q23 -74 67.5 -110t93.5 -36q22 0 35.5 10.5t13.5 24.5t-12 24.5t-27 18t-27 11.5t-12 6t3 19t8 41.5t12 52.5t14.5 51.5t15 39t14.5 15.5q8 0 21.5 -17.5t26.5 -44.5t22.5 -60t9.5 -64zM383 935q0 6 13 29.5t30 49.5t33.5 46.5t22.5 20.5q2 0 13 -6.5
t25.5 -16.5l31 -22.5l30.5 -23.5t23 -20t9 -12q0 -4 -6.5 -16l-16 -28.5t-21.5 -34.5t-23 -32.5t-19.5 -24.5t-11.5 -10q-6 0 -27.5 14t-45 32t-42 34t-18.5 21zM426 572q-6 0 -27 14t-44 32t-41 34t-18 20q0 6 13 29t29.5 48.5t32 46t20.5 20.5q3 0 23 -14.5l43 -31.5
l60 -46q7 -5 13 -5q3 0 8 8l41 57q16 22 31 40t20 18q2 0 12.5 -6.5t25.5 -17l31 -22.5l30 -23t23 -19.5t9 -11.5q0 -4 -6.5 -16t-16.5 -28.5l-21.5 -34.5t-22.5 -32.5l-19 -24.5t-10 -10q-8 0 -27.5 14l-41.5 31q-26 20 -55 46q-6 7 -11 7q-6 0 -13 -10l-42 -56l-31 -38.5
t-18 -17.5zM677 -88q6 0 27 -14t44 -32t41 -34t18 -20q0 -6 -13 -29t-29.5 -48.5t-32 -46t-20.5 -20.5q-4 0 -23.5 14.5l-42.5 31.5l-60 46q-7 5 -13 5q-3 0 -8 -8l-41 -58q-16 -22 -31 -39.5t-20 -17.5q-2 0 -12.5 6.5t-25.5 17l-31 22.5l-30 23t-23 19.5t-9 11.5
q0 4 6.5 16t16.5 28.5l21.5 34.5t22.5 32.5l19 24.5t10 10q7 0 27 -14.5l42 -31.5q26 -20 55 -45q6 -7 11 -7t13 10l42 56l30.5 38.5t18.5 17.5zM720 -451q0 -6 -13 -29.5t-30 -49.5t-33.5 -46.5t-22.5 -20.5q-2 0 -13 6.5t-25.5 16.5l-31 22.5l-30.5 23.5t-23 20t-9 12
q0 4 6.5 16l16 28.5t21.5 34.5t23 32.5t19.5 24.5t11.5 10q6 0 27.5 -14t45 -32t42 -34.5t18.5 -20.5z" />
    <glyph glyph-name="uni069C.medi" unicode="&#x69c;" horiz-adv-x="1099" 
d="M1165 93v-28t-4 -30.5t-13 -24.5t-28 -10h-37q-77 0 -126 46.5t-78 131.5q-27 -72 -61.5 -112.5t-91.5 -40.5q-54 0 -82.5 28.5t-40.5 79.5q-38 -68 -84.5 -99.5t-120.5 -31.5q-24 0 -46.5 6t-43.5 20t-38.5 37.5t-30.5 58.5q-19 -36 -45 -59.5t-55 -38t-58.5 -20.5
t-55.5 -6h-37q-19 0 -30 10t-16.5 24.5t-7 30.5t-1.5 28t1.5 31t7 37t16.5 31t30 13h37q53 0 91 12t64 30t42.5 39.5t27.5 39.5t17.5 30t12.5 12q12 0 17.5 -12t9.5 -29.5t9.5 -38t18 -38t35 -29.5t60.5 -12q41 0 72.5 13.5t55 33.5t40 43t28 43t18.5 33.5t12 13.5
q17 0 22.5 -6t6.5 -21q0 -8 2 -26.5t9.5 -38t22 -34.5t41.5 -15q36 0 60 22.5t39 50t23.5 50t14.5 22.5q28 0 28 -23q0 -17 10 -45t29.5 -54.5t49 -46t69.5 -19.5h37q19 0 28 -13t13 -31t4 -37v-31zM428 847q0 6 13 29.5t30 49.5t33.5 46.5t22.5 20.5q2 0 13 -6.5
t25.5 -16.5l31 -22.5l30.5 -23.5t23 -20t9 -12q0 -4 -6.5 -16l-16 -28.5t-21.5 -34.5t-23 -32.5t-19.5 -24.5t-11.5 -10q-6 0 -27.5 14t-45 32t-42 34t-18.5 21zM471 484q-6 0 -27 14t-44 32t-41 34t-18 20q0 6 13 29t29.5 48.5t32 46t20.5 20.5q3 0 23 -14.5l43 -31.5
l60 -46q7 -5 13 -5q3 0 8 8l41 57q16 22 31 40t20 18q2 0 12.5 -6.5t25.5 -17l31 -22.5l30 -23t23 -19.5t9 -11.5q0 -4 -6.5 -16t-16.5 -28.5l-21.5 -34.5t-22.5 -32.5l-19 -24.5t-10 -10q-8 0 -27.5 14l-41.5 31q-26 20 -55 46q-6 7 -11 7q-6 0 -13 -10l-42 -56l-31 -38.5
t-18 -17.5zM659 -72q6 0 27 -14t44 -32t41 -34t18 -20q0 -6 -13 -29t-29.5 -48.5t-32 -46t-20.5 -20.5q-4 0 -23.5 14.5l-42.5 31.5l-60 46q-7 5 -13 5q-3 0 -8 -8l-41 -58q-16 -22 -31 -39.5t-20 -17.5q-2 0 -12.5 6.5t-25.5 17l-31 22.5l-30 23t-23 19.5t-9 11.5
q0 4 6.5 16t16.5 28.5l21.5 34.5t22.5 32.5l19 24.5t10 10q7 0 27 -14.5l42 -31.5q26 -20 55 -45q6 -7 11 -7t13 10l42 56l30.5 38.5t18.5 17.5zM702 -435q0 -6 -13 -29.5t-30 -49.5t-33.5 -46.5t-22.5 -20.5q-2 0 -13 6.5t-25.5 16.5l-31 22.5l-30.5 23.5t-23 20t-9 12
q0 4 6.5 16l16 28.5t21.5 34.5t23 32.5t19.5 24.5t11.5 10q6 0 27.5 -14t45 -32t42 -34.5t18.5 -20.5z" />
    <glyph glyph-name="uni069C.fina" unicode="&#x69c;" horiz-adv-x="1550" 
d="M1617 103q0 -24 -1.5 -43t-7 -32.5t-16.5 -20.5t-30 -7h-37q-77 0 -126 46.5t-78 131.5q-27 -72 -61.5 -112.5t-91.5 -40.5q-54 0 -82.5 28.5t-40.5 79.5q-38 -68 -83.5 -100t-115.5 -33q-3 -40 -7.5 -79.5t-12.5 -75.5q-22 -96 -75.5 -162.5t-124.5 -107.5t-154 -59
t-164 -18q-84 0 -138 24.5t-85.5 63.5t-43.5 88t-12 98q0 59 19.5 119t43.5 109t44.5 79.5t23.5 30.5t9 -2.5t12 -6.5t10.5 -7.5t4.5 -5.5q0 -6 -12.5 -25.5t-27.5 -49t-27.5 -66.5t-12.5 -77q0 -30 12 -59.5t39 -53t70 -38t104 -14.5q135 0 233 18.5t149 65.5q50 47 50 121
q0 47 -10.5 84.5t-23 65t-23 45t-10.5 25.5q0 4 7 20.5l17 38.5l22.5 47.5t24 46.5l19.5 35t11 14q10 -7 19 -24t16.5 -36.5t13 -38t8.5 -29.5q43 0 75.5 13.5t57 34.5t42 44.5t29 44.5l18.5 34.5t12 13.5q18 0 23 -6t6 -21q0 -8 2 -26.5t9.5 -38t22 -34.5t41.5 -15
q36 0 60 22.5t39 50t23.5 50t14.5 22.5q28 0 28 -23q0 -17 10 -45t29.5 -54.5t49 -46t69.5 -19.5h37q19 0 30 -4.5t16.5 -16t7 -31.5t1.5 -50zM932 883q0 6 13 29.5t30 49.5t33.5 46.5t22.5 20.5q2 0 13 -6.5t25.5 -16.5l31 -22.5l30.5 -23.5t23 -20t9 -12q0 -4 -6.5 -16
l-16 -28.5t-21.5 -34.5t-23 -32.5t-19.5 -24.5t-11.5 -10q-6 0 -27.5 14t-45 32t-42 34t-18.5 21zM975 520q-6 0 -27 14t-44 32t-41 34t-18 20q0 6 13 29t29.5 48.5t32 46t20.5 20.5q3 0 23 -14.5l43 -31.5l60 -46q7 -5 13 -5q3 0 8 8l41 57q16 22 31 40t20 18
q2 0 12.5 -6.5t25.5 -17l31 -22.5l30 -23t23 -19.5t9 -11.5q0 -4 -6.5 -16t-16.5 -28.5l-21.5 -34.5t-22.5 -32.5l-19 -24.5t-10 -10q-8 0 -27.5 14l-41.5 31q-26 20 -55 46q-6 7 -11 7q-6 0 -13 -10l-42 -56l-31 -38.5t-18 -17.5zM1240 -95q6 0 27 -14t44 -32t41 -34
t18 -20q0 -6 -13 -29t-29.5 -48.5t-32 -46t-20.5 -20.5q-4 0 -23.5 14.5l-42.5 31.5l-60 46q-7 5 -13 5q-3 0 -8 -8l-41 -58q-16 -22 -31 -39.5t-20 -17.5q-2 0 -12.5 6.5t-25.5 17l-31 22.5l-30 23t-23 19.5t-9 11.5q0 4 6.5 16t16.5 28.5l21.5 34.5t22.5 32.5l19 24.5
t10 10q7 0 27 -14.5l42 -31.5q26 -20 55 -45q6 -7 11 -7t13 10l42 56l30.5 38.5t18.5 17.5zM1283 -458q0 -6 -13 -29.5t-30 -49.5t-33.5 -46.5t-22.5 -20.5q-2 0 -13 6.5t-25.5 16.5l-31 22.5l-30.5 23.5t-23 20t-9 12q0 4 6.5 16l16 28.5t21.5 34.5t23 32.5t19.5 24.5
t11.5 10q6 0 27.5 -14t45 -32t42 -34.5t18.5 -20.5z" />
    <glyph glyph-name="uni06FA.init" unicode="&#x6fa;" horiz-adv-x="1074" 
d="M971 401q0 -20 -3.5 -52t-12 -68.5t-21.5 -73.5t-32.5 -67t-46 -48.5t-60.5 -18.5q-28 0 -53 11t-46 28.5t-38 40t-29 45.5q-17 -30 -38.5 -64.5t-49 -64t-60.5 -48.5t-73 -19q-31 0 -58.5 11.5t-50 29t-38 39t-22.5 42.5q-38 -57 -92.5 -90.5t-121.5 -33.5h-37
q-19 0 -30 11.5t-16.5 28t-7 34t-1.5 29.5t1.5 29t7 33.5t16.5 28t30 11.5h37q54 0 93.5 10t67 24.5t45.5 32t29.5 32l19 24.5t13.5 10q12 0 18 -10t11 -24.5l10.5 -31.5t16 -31.5t28 -24.5t46.5 -10q49 0 89.5 19.5t69.5 50.5t46 69.5t21 77.5q1 8 5.5 14.5t15.5 6.5
q14 0 22 -25q23 -74 67.5 -110t93.5 -36q22 0 35.5 10.5t13.5 24.5t-12 24.5t-27 18t-27 11.5t-12 6t3 19t8 41.5t12 52.5t14.5 51.5t15 39t14.5 15.5q8 0 21.5 -17.5t26.5 -44.5t22.5 -60t9.5 -64zM383 935q0 6 13 29.5t30 49.5t33.5 46.5t22.5 20.5q2 0 13 -6.5
t25.5 -16.5l31 -22.5l30.5 -23.5t23 -20t9 -12q0 -4 -6.5 -16l-16 -28.5t-21.5 -34.5t-23 -32.5t-19.5 -24.5t-11.5 -10q-6 0 -27.5 14t-45 32t-42 34t-18.5 21zM426 572q-6 0 -27 14t-44 32t-41 34t-18 20q0 6 13 29t29.5 48.5t32 46t20.5 20.5q3 0 23 -14.5l43 -31.5
l60 -46q7 -5 13 -5q3 0 8 8l41 57q16 22 31 40t20 18q2 0 12.5 -6.5t25.5 -17l31 -22.5l30 -23t23 -19.5t9 -11.5q0 -4 -6.5 -16t-16.5 -28.5l-21.5 -34.5t-22.5 -32.5l-19 -24.5t-10 -10q-8 0 -27.5 14l-41.5 31q-26 20 -55 46q-6 7 -11 7q-6 0 -13 -10l-42 -56l-31 -38.5
t-18 -17.5zM691 -216q0 -4 -6.5 -16.5t-16.5 -29.5t-22.5 -36t-24 -34.5t-21.5 -26t-14 -10.5q-3 0 -25.5 14.5t-47.5 33t-45.5 36t-20.5 22.5q0 4 6.5 17t17 30l23 36t24 34.5t20.5 26t13 10.5q6 0 28.5 -15t47.5 -33.5t44.5 -36t19.5 -22.5z" />
    <glyph glyph-name="uni06FA.medi" unicode="&#x6fa;" horiz-adv-x="1099" 
d="M1165 93v-28t-4 -30.5t-13 -24.5t-28 -10h-37q-77 0 -126 46.5t-78 131.5q-27 -72 -61.5 -112.5t-91.5 -40.5q-54 0 -82.5 28.5t-40.5 79.5q-38 -68 -84.5 -99.5t-120.5 -31.5q-24 0 -46.5 6t-43.5 20t-38.5 37.5t-30.5 58.5q-19 -36 -45 -59.5t-55 -38t-58.5 -20.5
t-55.5 -6h-37q-19 0 -30 10t-16.5 24.5t-7 30.5t-1.5 28t1.5 31t7 37t16.5 31t30 13h37q53 0 91 12t64 30t42.5 39.5t27.5 39.5t17.5 30t12.5 12q12 0 17.5 -12t9.5 -29.5t9.5 -38t18 -38t35 -29.5t60.5 -12q41 0 72.5 13.5t55 33.5t40 43t28 43t18.5 33.5t12 13.5
q17 0 22.5 -6t6.5 -21q0 -8 2 -26.5t9.5 -38t22 -34.5t41.5 -15q36 0 60 22.5t39 50t23.5 50t14.5 22.5q28 0 28 -23q0 -17 10 -45t29.5 -54.5t49 -46t69.5 -19.5h37q19 0 28 -13t13 -31t4 -37v-31zM428 847q0 6 13 29.5t30 49.5t33.5 46.5t22.5 20.5q2 0 13 -6.5
t25.5 -16.5l31 -22.5l30.5 -23.5t23 -20t9 -12q0 -4 -6.5 -16l-16 -28.5t-21.5 -34.5t-23 -32.5t-19.5 -24.5t-11.5 -10q-6 0 -27.5 14t-45 32t-42 34t-18.5 21zM471 484q-6 0 -27 14t-44 32t-41 34t-18 20q0 6 13 29t29.5 48.5t32 46t20.5 20.5q3 0 23 -14.5l43 -31.5
l60 -46q7 -5 13 -5q3 0 8 8l41 57q16 22 31 40t20 18q2 0 12.5 -6.5t25.5 -17l31 -22.5l30 -23t23 -19.5t9 -11.5q0 -4 -6.5 -16t-16.5 -28.5l-21.5 -34.5t-22.5 -32.5l-19 -24.5t-10 -10q-8 0 -27.5 14l-41.5 31q-26 20 -55 46q-6 7 -11 7q-6 0 -13 -10l-42 -56l-31 -38.5
t-18 -17.5zM662 -213q0 -4 -6.5 -16.5t-16.5 -29.5t-22.5 -36t-24 -34.5t-21.5 -26t-14 -10.5q-3 0 -25.5 14.5t-47.5 33t-45.5 36t-20.5 22.5q0 4 6.5 17t17 30l23 36t24 34.5t20.5 26t13 10.5q6 0 28.5 -15t47.5 -33.5t44.5 -36t19.5 -22.5z" />
    <glyph glyph-name="uni06FA.fina" unicode="&#x6fa;" horiz-adv-x="1550" 
d="M1617 103q0 -24 -1.5 -43t-7 -32.5t-16.5 -20.5t-30 -7h-37q-77 0 -126 46.5t-78 131.5q-27 -72 -61.5 -112.5t-91.5 -40.5q-54 0 -82.5 28.5t-40.5 79.5q-38 -68 -83.5 -100t-115.5 -33q-3 -40 -7.5 -79.5t-12.5 -75.5q-22 -96 -75.5 -162.5t-124.5 -107.5t-154 -59
t-164 -18q-84 0 -138 24.5t-85.5 63.5t-43.5 88t-12 98q0 59 19.5 119t43.5 109t44.5 79.5t23.5 30.5t9 -2.5t12 -6.5t10.5 -7.5t4.5 -5.5q0 -6 -12.5 -25.5t-27.5 -49t-27.5 -66.5t-12.5 -77q0 -30 12 -59.5t39 -53t70 -38t104 -14.5q135 0 233 18.5t149 65.5q50 47 50 121
q0 47 -10.5 84.5t-23 65t-23 45t-10.5 25.5q0 4 7 20.5l17 38.5l22.5 47.5t24 46.5l19.5 35t11 14q10 -7 19 -24t16.5 -36.5t13 -38t8.5 -29.5q43 0 75.5 13.5t57 34.5t42 44.5t29 44.5l18.5 34.5t12 13.5q18 0 23 -6t6 -21q0 -8 2 -26.5t9.5 -38t22 -34.5t41.5 -15
q36 0 60 22.5t39 50t23.5 50t14.5 22.5q28 0 28 -23q0 -17 10 -45t29.5 -54.5t49 -46t69.5 -19.5h37q19 0 30 -4.5t16.5 -16t7 -31.5t1.5 -50zM932 883q0 6 13 29.5t30 49.5t33.5 46.5t22.5 20.5q2 0 13 -6.5t25.5 -16.5l31 -22.5l30.5 -23.5t23 -20t9 -12q0 -4 -6.5 -16
l-16 -28.5t-21.5 -34.5t-23 -32.5t-19.5 -24.5t-11.5 -10q-6 0 -27.5 14t-45 32t-42 34t-18.5 21zM975 520q-6 0 -27 14t-44 32t-41 34t-18 20q0 6 13 29t29.5 48.5t32 46t20.5 20.5q3 0 23 -14.5l43 -31.5l60 -46q7 -5 13 -5q3 0 8 8l41 57q16 22 31 40t20 18
q2 0 12.5 -6.5t25.5 -17l31 -22.5l30 -23t23 -19.5t9 -11.5q0 -4 -6.5 -16t-16.5 -28.5l-21.5 -34.5t-22.5 -32.5l-19 -24.5t-10 -10q-8 0 -27.5 14l-41.5 31q-26 20 -55 46q-6 7 -11 7q-6 0 -13 -10l-42 -56l-31 -38.5t-18 -17.5zM1251 -208q0 -4 -6.5 -16.5t-16.5 -29.5
t-22.5 -36t-24 -34.5t-21.5 -26t-14 -10.5q-3 0 -25.5 14.5t-47.5 33t-45.5 36t-20.5 22.5q0 4 6.5 17t17 30l23 36t24 34.5t20.5 26t13 10.5q6 0 28.5 -15t47.5 -33.5t44.5 -36t19.5 -22.5z" />
    <glyph glyph-name="uni0635.init" unicode="&#x635;" horiz-adv-x="1287" arabic-form="initial" 
d="M1185 452q0 -92 -37 -161t-96.5 -119t-134.5 -83t-149.5 -52.5t-142.5 -27.5t-114 -9q-5 -9 -12.5 -30t-15 -45.5t-13.5 -47.5t-7 -36q-3 0 -12 9.5t-18 22t-16.5 24.5t-7.5 17q0 4 2 14t5 22l6.5 25t7.5 25q-77 0 -136.5 25t-96.5 82q-14 -22 -30 -41.5t-36 -34t-46 -23
t-60 -8.5h-37q-19 0 -30 7.5t-16.5 21t-7 32.5t-1.5 42q0 26 1.5 45.5t7 32t16.5 18.5t30 6h37q64 0 105 21t66 46.5t37 46.5t17 21q9 0 13.5 -6t6.5 -15.5t3 -21t3 -22.5q5 -25 26.5 -39t50 -21t59.5 -8.5t55 -1.5h40q24 44 56.5 92.5t72.5 95.5t85.5 89t96 74t104 51
t108.5 19q43 0 72.5 -18.5t48 -45t26.5 -56.5t8 -54zM1081 359q0 6 -9.5 15t-28 18t-44.5 15.5t-59 6.5q-42 0 -91 -14.5t-96 -41.5t-87.5 -65.5t-65.5 -85.5q54 1 110.5 9.5t110 22t101 30t83 33.5t56 32t20.5 25z" />
    <glyph glyph-name="uni0635.medi" unicode="&#x635;" horiz-adv-x="1254" arabic-form="medial" 
d="M1310 103q0 -12 -1.5 -29.5t-7 -34t-16.5 -28t-30 -11.5h-37q-117 0 -237 0.5t-240 0.5h-121.5t-119.5 -1q-10 -20 -18 -47.5t-14.5 -52l-11 -42t-5.5 -17.5q-8 0 -17.5 7t-17.5 18t-13.5 23.5t-5.5 24.5q0 9 5.5 35t14.5 52q-77 0 -135.5 24.5t-95.5 81.5
q-14 -22 -30 -41.5t-36 -34t-46 -23t-60 -8.5h-37q-19 0 -30 11.5t-16.5 28t-7 34t-1.5 29.5t1.5 29t7 33.5t16.5 28t30 11.5h37q64 0 105 21t66 46.5t37 46.5t17 21q9 0 13.5 -7t6.5 -16.5t3 -21t3 -20.5q5 -25 26.5 -39t50 -21t59.5 -8.5t55 -1.5h39q24 44 57.5 93.5
t74.5 97.5t88 91.5t98 76.5t105.5 52.5t109.5 19.5q40 0 67.5 -20t44.5 -49t25 -60.5t8 -54.5q0 -37 -7 -73.5t-22.5 -70.5t-41 -63.5t-62.5 -51.5q41 4 65 6l41 3.5t32.5 2t39.5 0.5h37q19 0 30 -11.5t16.5 -28t7 -33.5t1.5 -29zM1069 359q0 15 -19.5 25.5t-44 17
t-47.5 9.5t-30 3q-103 0 -192.5 -49t-147.5 -160q54 1 110.5 10t110 23t101 30.5t83 33.5t56 32t20.5 25z" />
    </font>
</defs>
</svg>
