<?xml version="1.0" standalone="no"?><!DOCTYPE svg PUBLIC "-//W3C//DTD SVG 1.1//EN" "http://www.w3.org/Graphics/SVG/1.1/DTD/svg11.dtd" ><svg xmlns="http://www.w3.org/2000/svg"><metadata></metadata><defs><font id="FontForge 2.0 : MS Sans Serif : 14-2-2024" horiz-adv-x="1000"><font-face font-family="MS Sans Serif" font-weight="400" font-stretch="normal" units-per-em="1000" panose-1="2 0 5 3 0 0 0 0 0 0" ascent="769" descent="-232" x-height="0" bbox="0 -232 969 769" underline-thickness="50" underline-position="27" unicode-range="U+0000-25cf" /><missing-glyph horiz-adv-x="364" d="M33 0 l0 666 l265 0 l0 -666 l-265 0 ZM66 33 l199 0 l0 600 l-199 0 l0 -600 Z" /><glyph glyph-name=".null" unicode="" d="" /><glyph glyph-name="nonmarkingreturn" unicode="" d="" /><glyph glyph-name="space" unicode=" " d="" /><glyph glyph-name="exclam" unicode="!" d="M141 81 l47 0 l0 -47 l0 -46 l-47 0 l-47 0 l0 46 l0 47 l47 0 ZM141 706 l47 0 l0 -218 l0 -219 l-16 0 l-16 0 l0 -47 l0 -47 l-15 0 l-16 0 l0 47 l0 47 l-16 0 l-15 0 l0 219 l0 218 l47 0 Z" /><glyph glyph-name="quotedbl" unicode="&quot;" d="M266 706 l46 0 l0 -78 l0 -78 l-15 0 l-16 0 l0 -47 l0 -47 l-15 0 l-16 0 l0 47 l0 47 l-16 0 l-15 0 l0 78 l0 78 l47 0 ZM78 706 l47 0 l0 -78 l0 -78 l-16 0 l-15 0 l0 -47 l0 -47 l-16 0 l-16 0 l0 47 l0 47 l-15 0 l-16 0 l0 78 l0 78 l47 0 Z" /><glyph glyph-name="numbersign" unicode="#" d="M250 706 l31 0 l0 -78 l0 -78 l-15 0 l-16 0 l0 -16 l0 -15 l62 0 l63 0 l0 31 l0 31 l16 0 l15 0 l0 63 l0 62 l32 0 l31 0 l0 -78 l0 -78 l-16 0 l-15 0 l0 -16 l0 -15 l46 0 l47 0 l0 -31 l0 -32 l-47 0 l-46 0 l0 -31 l0 -31 l-16 0 l-16 0 l0 -63 l0 -62 l-15 0 l-16 0 l0 -16 l0 -15 l63 0 l62 0 l0 -32 l0 -31 l-62 0 l-63 0 l0 -31 l0 -32 l-16 0 l-15 0 l0 -62 l0 -62 l-32 0 l-31 0 l0 78 l0 78 l16 0 l15 0 l0 15 l0 16 l-62 0 l-62 0 l0 -31 l0 -32 l-16 0 l-16 0 l0 -62 l0 -62 l-31 0 l-31 0 l0 78 l0 78 l15 0 l16 0 l0 15 l0 16 l-47 0 l-47 0 l0 31 l0 32 l47 0 l47 0 l0 31 l0 31 l16 0 l15 0 l0 62 l0 63 l16 0 l16 0 l0 16 l0 15 l-63 0 l-63 0 l0 32 l0 31 l63 0 l63 0 l0 31 l0 31 l15 0 l16 0 l0 63 l0 62 l31 0 ZM312 456 l-62 0 l0 -31 l0 -31 l-16 0 l-15 0 l0 -63 l0 -62 l-16 0 l-15 0 l0 -16 l0 -15 l62 0 l62 0 l0 31 l0 31 l16 0 l16 0 l0 62 l0 63 l15 0 l16 0 l0 16 l0 15 l-63 0 Z" /><glyph glyph-name="dollar" unicode="$" d="M281 769 l31 0 l0 -31 l0 -32 l32 0 l31 0 l0 -15 l0 -16 l31 0 l32 0 l0 -16 l0 -15 l15 0 l16 0 l0 -32 l0 -31 l15 0 l16 0 l0 -31 l0 -31 l-47 0 l-47 0 l0 31 l0 31 l-15 0 l-16 0 l0 16 l0 15 l-16 0 l-15 0 l0 16 l0 16 l-16 0 l-16 0 l0 -125 l0 -125 l32 0 l31 0 l0 -16 l0 -16 l31 0 l32 0 l0 -15 l0 -16 l15 0 l16 0 l0 -15 l0 -16 l15 0 l16 0 l0 -31 l0 -31 l16 0 l15 0 l0 -63 l0 -63 l-15 0 l-16 0 l0 -31 l0 -31 l-16 0 l-15 0 l0 -16 l0 -15 l-31 0 l-32 0 l0 -16 l0 -15 l-47 0 l-47 0 l0 -47 l0 -47 l-31 0 l-31 0 l0 47 l0 47 l-47 0 l-47 0 l0 15 l0 16 l-31 0 l-31 0 l0 15 l0 16 l-16 0 l-16 0 l0 31 l0 31 l-15 0 l-16 0 l0 47 l0 47 l47 0 l47 0 l0 -47 l0 -47 l16 0 l15 0 l0 -15 l0 -16 l16 0 l16 0 l0 -15 l0 -16 l31 0 l31 0 l0 141 l0 140 l-16 0 l-15 0 l0 16 l0 15 l-31 0 l-32 0 l0 16 l0 16 l-15 0 l-16 0 l0 15 l0 16 l-16 0 l-15 0 l0 31 l0 32 l-16 0 l-16 0 l0 46 l0 47 l16 0 l16 0 l0 31 l0 32 l15 0 l16 0 l0 15 l0 16 l31 0 l32 0 l0 16 l0 15 l31 0 l31 0 l0 32 l0 31 l31 0 ZM234 644 l-15 0 l0 -16 l0 -16 l-16 0 l-15 0 l0 -15 l0 -16 l-16 0 l-16 0 l0 -47 l0 -46 l16 0 l16 0 l0 -16 l0 -16 l15 0 l16 0 l0 -15 l0 -16 l15 0 l16 0 l0 109 l0 110 l-16 0 ZM344 300 l-32 0 l0 -125 l0 -125 l32 0 l31 0 l0 16 l0 15 l16 0 l15 0 l0 16 l0 15 l16 0 l16 0 l0 63 l0 63 l-16 0 l-16 0 l0 15 l0 16 l-15 0 l-16 0 l0 15 l0 16 l-31 0 Z" /><glyph glyph-name="percent" unicode="%" d="M656 300 l63 0 l0 -16 l0 -15 l31 0 l31 0 l0 -31 l0 -32 l16 0 l15 0 l0 -62 l0 -63 l-15 0 l-16 0 l0 -31 l0 -31 l-31 0 l-31 0 l0 -16 l0 -15 l-63 0 l-62 0 l0 15 l0 16 l-32 0 l-31 0 l0 31 l0 31 l-15 0 l-16 0 l0 63 l0 62 l16 0 l15 0 l0 32 l0 31 l31 0 l32 0 l0 15 l0 16 l62 0 ZM656 238 l-62 0 l0 -16 l0 -16 l-16 0 l-16 0 l0 -62 l0 -63 l16 0 l16 0 l0 -15 l0 -16 l62 0 l63 0 l0 16 l0 15 l15 0 l16 0 l0 63 l0 62 l-16 0 l-15 0 l0 16 l0 16 l-63 0 ZM609 706 l47 0 l0 -15 l0 -16 l-15 0 l-16 0 l0 -31 l0 -32 l-16 0 l-15 0 l0 -31 l0 -31 l-16 0 l-16 0 l0 -31 l0 -31 l-15 0 l-16 0 l0 -32 l0 -31 l-15 0 l-16 0 l0 -31 l0 -32 l-16 0 l-15 0 l0 -31 l0 -31 l-16 0 l-15 0 l0 -31 l0 -31 l-16 0 l-16 0 l0 -32 l0 -31 l-15 0 l-16 0 l0 -31 l0 -32 l-16 0 l-15 0 l0 -31 l0 -31 l-16 0 l-16 0 l0 -31 l0 -31 l-46 0 l-47 0 l0 15 l0 16 l15 0 l16 0 l0 31 l0 31 l16 0 l15 0 l0 31 l0 32 l16 0 l15 0 l0 31 l0 31 l16 0 l16 0 l0 32 l0 31 l15 0 l16 0 l0 31 l0 31 l16 0 l15 0 l0 31 l0 32 l16 0 l16 0 l0 31 l0 31 l15 0 l16 0 l0 32 l0 31 l15 0 l16 0 l0 31 l0 31 l16 0 l15 0 l0 31 l0 32 l16 0 l15 0 l0 31 l0 31 l47 0 ZM219 706 l62 0 l0 -15 l0 -16 l31 0 l32 0 l0 -31 l0 -32 l15 0 l16 0 l0 -62 l0 -62 l-16 0 l-15 0 l0 -32 l0 -31 l-32 0 l-31 0 l0 -16 l0 -15 l-62 0 l-63 0 l0 15 l0 16 l-31 0 l-31 0 l0 31 l0 32 l-16 0 l-16 0 l0 62 l0 62 l16 0 l16 0 l0 32 l0 31 l31 0 l31 0 l0 16 l0 15 l63 0 ZM219 644 l-63 0 l0 -16 l0 -16 l-15 0 l-16 0 l0 -62 l0 -62 l16 0 l15 0 l0 -16 l0 -16 l63 0 l62 0 l0 16 l0 16 l16 0 l15 0 l0 62 l0 62 l-15 0 l-16 0 l0 16 l0 16 l-62 0 Z" /><glyph glyph-name="ampersand" unicode="&amp;" d="M281 706 l31 0 l0 -15 l0 -16 l32 0 l31 0 l0 -16 l0 -15 l16 0 l15 0 l0 -32 l0 -31 l16 0 l16 0 l0 -47 l0 -46 l-16 0 l-16 0 l0 -32 l0 -31 l-15 0 l-16 0 l0 -16 l0 -15 l-16 0 l-15 0 l0 -16 l0 -16 l15 0 l16 0 l0 -15 l0 -16 l16 0 l15 0 l0 -15 l0 -16 l16 0 l16 0 l0 -16 l0 -15 l31 0 l31 0 l0 31 l0 31 l47 0 l47 0 l0 -31 l0 -31 l-16 0 l-16 0 l0 -31 l0 -32 l-15 0 l-16 0 l0 -31 l0 -31 l16 0 l15 0 l0 -16 l0 -16 l16 0 l16 0 l0 -15 l0 -16 l15 0 l16 0 l0 -15 l0 -16 l16 0 l15 0 l0 -16 l0 -15 l16 0 l16 0 l0 -16 l0 -15 l-63 0 l-63 0 l0 15 l0 16 l-15 0 l-16 0 l0 15 l0 16 l-15 0 l-16 0 l0 16 l0 15 l-16 0 l-15 0 l0 -15 l0 -16 l-16 0 l-15 0 l0 -16 l0 -15 l-32 0 l-31 0 l0 -16 l0 -15 l-94 0 l-93 0 l0 15 l0 16 l-32 0 l-31 0 l0 15 l0 16 l-16 0 l-15 0 l0 31 l0 31 l-16 0 l-16 0 l0 79 l0 78 l16 0 l16 0 l0 31 l0 31 l15 0 l16 0 l0 16 l0 15 l16 0 l15 0 l0 16 l0 16 l16 0 l16 0 l0 15 l0 16 l-16 0 l-16 0 l0 31 l0 32 l-15 0 l-16 0 l0 46 l0 47 l16 0 l15 0 l0 31 l0 32 l16 0 l16 0 l0 15 l0 16 l31 0 l31 0 l0 16 l0 15 l31 0 ZM281 612 l-31 0 l0 -15 l0 -16 l-16 0 l-15 0 l0 -47 l0 -46 l15 0 l16 0 l0 -16 l0 -16 l31 0 l31 0 l0 16 l0 16 l16 0 l16 0 l0 46 l0 47 l-16 0 l-16 0 l0 16 l0 15 l-31 0 ZM250 331 l-31 0 l0 -15 l0 -16 l-16 0 l-15 0 l0 -31 l0 -31 l-16 0 l-16 0 l0 -47 l0 -47 l16 0 l16 0 l0 -16 l0 -16 l15 0 l16 0 l0 -15 l0 -16 l78 0 l78 0 l0 16 l0 15 l16 0 l15 0 l0 16 l0 16 l16 0 l16 0 l0 15 l0 16 l-16 0 l-16 0 l0 16 l0 15 l-15 0 l-16 0 l0 16 l0 16 l-16 0 l-15 0 l0 15 l0 16 l-16 0 l-16 0 l0 15 l0 16 l-15 0 l-16 0 l0 16 l0 15 l-31 0 Z" /><glyph glyph-name="quotesingle" unicode="&#39;" d="M109 706 l47 0 l0 -78 l0 -78 l-15 0 l-16 0 l0 -47 l0 -47 l-16 0 l-15 0 l0 47 l0 47 l-16 0 l-16 0 l0 78 l0 78 l47 0 Z" /><glyph glyph-name="parenleft" unicode="(" d="M281 706 l31 0 l0 -31 l0 -31 l-15 0 l-16 0 l0 -16 l0 -16 l-15 0 l-16 0 l0 -31 l0 -31 l-16 0 l-15 0 l0 -47 l0 -47 l-16 0 l-15 0 l0 -218 l0 -219 l15 0 l16 0 l0 -47 l0 -47 l15 0 l16 0 l0 -31 l0 -32 l16 0 l15 0 l0 -15 l0 -16 l16 0 l15 0 l0 -31 l0 -31 l-31 0 l-31 0 l0 15 l0 16 l-16 0 l-15 0 l0 16 l0 15 l-16 0 l-15 0 l0 16 l0 15 l-16 0 l-16 0 l0 32 l0 31 l-15 0 l-16 0 l0 47 l0 47 l-16 0 l-15 0 l0 219 l0 218 l15 0 l16 0 l0 47 l0 47 l16 0 l15 0 l0 31 l0 31 l16 0 l16 0 l0 16 l0 16 l15 0 l16 0 l0 15 l0 16 l15 0 l16 0 l0 16 l0 15 l31 0 Z" /><glyph glyph-name="parenright" unicode=")" d="M62 706 l32 0 l0 -15 l0 -16 l15 0 l16 0 l0 -16 l0 -15 l16 0 l15 0 l0 -16 l0 -16 l16 0 l16 0 l0 -31 l0 -31 l15 0 l16 0 l0 -47 l0 -47 l15 0 l16 0 l0 -218 l0 -219 l-16 0 l-15 0 l0 -47 l0 -47 l-16 0 l-15 0 l0 -31 l0 -32 l-16 0 l-16 0 l0 -15 l0 -16 l-15 0 l-16 0 l0 -15 l0 -16 l-16 0 l-15 0 l0 -16 l0 -15 l-32 0 l-31 0 l0 31 l0 31 l16 0 l15 0 l0 16 l0 15 l16 0 l16 0 l0 32 l0 31 l15 0 l16 0 l0 47 l0 47 l16 0 l15 0 l0 219 l0 218 l-15 0 l-16 0 l0 47 l0 47 l-16 0 l-15 0 l0 31 l0 31 l-16 0 l-16 0 l0 16 l0 16 l-15 0 l-16 0 l0 31 l0 31 l31 0 Z" /><glyph glyph-name="password_bullet" unicode="&#x2022;&#x25cf;" d="M188 706 l31 0 l0 -47 l0 -47 l15 0 l16 0 l0 16 l0 16 l31 0 l31 0 l0 -16 l0 -16 l16 0 l16 0 l0 -15 l0 -16 l-32 0 l-31 0 l0 -15 l0 -16 l-15 0 l-16 0 l0 -16 l0 -15 l16 0 l15 0 l0 -16 l0 -15 l16 0 l15 0 l0 -16 l0 -16 l-15 0 l-16 0 l0 -15 l0 -16 l-15 0 l-16 0 l0 16 l0 15 l-16 0 l-15 0 l0 16 l0 16 l-31 0 l-32 0 l0 -16 l0 -16 l-15 0 l-16 0 l0 -15 l0 -16 l-16 0 l-15 0 l0 16 l0 15 l-16 0 l-16 0 l0 16 l0 16 l16 0 l16 0 l0 15 l0 16 l15 0 l16 0 l0 15 l0 16 l-16 0 l-15 0 l0 16 l0 15 l-32 0 l-31 0 l0 16 l0 15 l16 0 l15 0 l0 16 l0 16 l32 0 l31 0 l0 -16 l0 -16 l16 0 l15 0 l0 47 l0 47 l32 0 Z" /><glyph glyph-name="asterisk" unicode="*" d="M188 706 l31 0 l0 -47 l0 -47 l15 0 l16 0 l0 16 l0 16 l31 0 l31 0 l0 -16 l0 -16 l16 0 l16 0 l0 -15 l0 -16 l-32 0 l-31 0 l0 -15 l0 -16 l-15 0 l-16 0 l0 -16 l0 -15 l16 0 l15 0 l0 -16 l0 -15 l16 0 l15 0 l0 -16 l0 -16 l-15 0 l-16 0 l0 -15 l0 -16 l-15 0 l-16 0 l0 16 l0 15 l-16 0 l-15 0 l0 16 l0 16 l-31 0 l-32 0 l0 -16 l0 -16 l-15 0 l-16 0 l0 -15 l0 -16 l-16 0 l-15 0 l0 16 l0 15 l-16 0 l-16 0 l0 16 l0 16 l16 0 l16 0 l0 15 l0 16 l15 0 l16 0 l0 15 l0 16 l-16 0 l-15 0 l0 16 l0 15 l-32 0 l-31 0 l0 16 l0 15 l16 0 l15 0 l0 16 l0 16 l32 0 l31 0 l0 -16 l0 -16 l16 0 l15 0 l0 47 l0 47 l32 0 Z" /><glyph glyph-name="plus" unicode="+" d="M297 644 l47 0 l0 -125 l0 -125 l109 0 l109 0 l0 -47 l0 -47 l-109 0 l-109 0 l0 -125 l0 -125 l-47 0 l-47 0 l0 125 l0 125 l-109 0 l-110 0 l0 47 l0 47 l110 0 l109 0 l0 125 l0 125 l47 0 Z" /><glyph glyph-name="comma" unicode="," d="M141 81 l47 0 l0 -62 l0 -63 l-16 0 l-16 0 l0 -15 l0 -16 l-15 0 l-16 0 l0 -16 l0 -15 l-16 0 l-15 0 l0 15 l0 16 l15 0 l16 0 l0 16 l0 15 l16 0 l15 0 l0 16 l0 16 l-31 0 l-31 0 l0 46 l0 47 l47 0 Z" /><glyph glyph-name="hyphen" unicode="-" d="M156 238 l125 0 l0 -32 l0 -31 l-125 0 l-125 0 l0 31 l0 32 l125 0 Z" /><glyph glyph-name="period" unicode="." d="M141 81 l47 0 l0 -47 l0 -46 l-47 0 l-47 0 l0 46 l0 47 l47 0 Z" /><glyph glyph-name="slash" unicode="/" d="M234 706 l47 0 l0 -47 l0 -47 l-15 0 l-16 0 l0 -46 l0 -47 l-16 0 l-15 0 l0 -47 l0 -47 l-16 0 l-15 0 l0 -63 l0 -62 l-16 0 l-16 0 l0 -47 l0 -47 l-15 0 l-16 0 l0 -62 l0 -63 l-16 0 l-15 0 l0 -47 l0 -46 l-47 0 l-47 0 l0 46 l0 47 l16 0 l15 0 l0 63 l0 62 l16 0 l15 0 l0 47 l0 47 l16 0 l16 0 l0 62 l0 63 l15 0 l16 0 l0 47 l0 47 l16 0 l15 0 l0 47 l0 46 l16 0 l16 0 l0 47 l0 47 l46 0 Z" /><glyph glyph-name="zero" unicode="0" d="M281 706 l63 0 l0 -15 l0 -16 l31 0 l31 0 l0 -16 l0 -15 l16 0 l16 0 l0 -16 l0 -16 l15 0 l16 0 l0 -31 l0 -31 l15 0 l16 0 l0 -203 l0 -203 l-16 0 l-15 0 l0 -32 l0 -31 l-16 0 l-15 0 l0 -15 l0 -16 l-16 0 l-16 0 l0 -16 l0 -15 l-31 0 l-31 0 l0 -16 l0 -15 l-63 0 l-62 0 l0 15 l0 16 l-31 0 l-32 0 l0 15 l0 16 l-15 0 l-16 0 l0 16 l0 15 l-16 0 l-15 0 l0 31 l0 32 l-16 0 l-16 0 l0 203 l0 203 l16 0 l16 0 l0 31 l0 31 l15 0 l16 0 l0 16 l0 16 l16 0 l15 0 l0 15 l0 16 l32 0 l31 0 l0 16 l0 15 l62 0 ZM281 612 l-62 0 l0 -15 l0 -16 l-16 0 l-15 0 l0 -31 l0 -31 l-16 0 l-16 0 l0 -172 l0 -172 l16 0 l16 0 l0 -31 l0 -32 l15 0 l16 0 l0 -15 l0 -16 l62 0 l63 0 l0 16 l0 15 l15 0 l16 0 l0 32 l0 31 l16 0 l15 0 l0 172 l0 172 l-15 0 l-16 0 l0 31 l0 31 l-16 0 l-15 0 l0 16 l0 15 l-63 0 Z" /><glyph glyph-name="one" unicode="1" d="M281 706 l31 0 l0 -359 l0 -359 l-46 0 l-47 0 l0 250 l0 250 l-47 0 l-47 0 l0 46 l0 47 l31 0 l32 0 l0 16 l0 15 l15 0 l16 0 l0 16 l0 16 l15 0 l16 0 l0 31 l0 31 l31 0 Z" /><glyph glyph-name="two" unicode="2" d="M281 706 l63 0 l0 -15 l0 -16 l31 0 l31 0 l0 -16 l0 -15 l16 0 l16 0 l0 -16 l0 -16 l15 0 l16 0 l0 -31 l0 -31 l15 0 l16 0 l0 -62 l0 -63 l-16 0 l-15 0 l0 -31 l0 -32 l-16 0 l-15 0 l0 -15 l0 -16 l-16 0 l-16 0 l0 -15 l0 -16 l-31 0 l-31 0 l0 -16 l0 -15 l-32 0 l-31 0 l0 -16 l0 -15 l-15 0 l-16 0 l0 -16 l0 -16 l-16 0 l-15 0 l0 -15 l0 -16 l-16 0 l-15 0 l0 -16 l0 -15 l-16 0 l-16 0 l0 -32 l0 -31 l188 0 l187 0 l0 -47 l0 -46 l-250 0 l-250 0 l0 46 l0 47 l16 0 l15 0 l0 31 l0 32 l16 0 l16 0 l0 31 l0 31 l15 0 l16 0 l0 16 l0 16 l16 0 l15 0 l0 15 l0 16 l16 0 l16 0 l0 15 l0 16 l15 0 l16 0 l0 16 l0 15 l31 0 l31 0 l0 16 l0 15 l31 0 l32 0 l0 16 l0 16 l15 0 l16 0 l0 15 l0 16 l16 0 l15 0 l0 63 l0 62 l-15 0 l-16 0 l0 16 l0 15 l-16 0 l-15 0 l0 16 l0 15 l-63 0 l-62 0 l0 -15 l0 -16 l-16 0 l-15 0 l0 -15 l0 -16 l-16 0 l-16 0 l0 -31 l0 -31 l-47 0 l-47 0 l0 31 l0 31 l16 0 l16 0 l0 31 l0 31 l15 0 l16 0 l0 16 l0 16 l16 0 l15 0 l0 15 l0 16 l32 0 l31 0 l0 16 l0 15 l62 0 Z" /><glyph glyph-name="three" unicode="3" d="M281 706 l63 0 l0 -15 l0 -16 l31 0 l31 0 l0 -16 l0 -15 l16 0 l16 0 l0 -16 l0 -16 l15 0 l16 0 l0 -31 l0 -31 l15 0 l16 0 l0 -47 l0 -47 l-16 0 l-15 0 l0 -31 l0 -31 l-16 0 l-15 0 l0 -16 l0 -16 l15 0 l16 0 l0 -15 l0 -16 l15 0 l16 0 l0 -31 l0 -31 l16 0 l15 0 l0 -63 l0 -62 l-15 0 l-16 0 l0 -32 l0 -31 l-16 0 l-15 0 l0 -15 l0 -16 l-16 0 l-15 0 l0 -16 l0 -15 l-32 0 l-31 0 l0 -16 l0 -15 l-94 0 l-93 0 l0 15 l0 16 l-32 0 l-31 0 l0 15 l0 16 l-16 0 l-15 0 l0 16 l0 15 l-16 0 l-16 0 l0 31 l0 32 l-15 0 l-16 0 l0 31 l0 31 l47 0 l47 0 l0 -31 l0 -31 l16 0 l15 0 l0 -16 l0 -16 l16 0 l16 0 l0 -15 l0 -16 l93 0 l94 0 l0 16 l0 15 l16 0 l15 0 l0 16 l0 16 l16 0 l16 0 l0 62 l0 63 l-16 0 l-16 0 l0 15 l0 16 l-15 0 l-16 0 l0 16 l0 15 l-63 0 l-62 0 l0 47 l0 47 l62 0 l63 0 l0 16 l0 15 l16 0 l15 0 l0 47 l0 47 l-15 0 l-16 0 l0 16 l0 15 l-16 0 l-15 0 l0 16 l0 15 l-63 0 l-62 0 l0 -15 l0 -16 l-16 0 l-15 0 l0 -15 l0 -16 l-16 0 l-16 0 l0 -31 l0 -31 l-47 0 l-47 0 l0 31 l0 31 l16 0 l16 0 l0 31 l0 31 l15 0 l16 0 l0 16 l0 16 l16 0 l15 0 l0 15 l0 16 l32 0 l31 0 l0 16 l0 15 l62 0 Z" /><glyph glyph-name="four" unicode="4" d="M375 706 l63 0 l0 -234 l0 -234 l46 0 l47 0 l0 -47 l0 -47 l-47 0 l-46 0 l0 -78 l0 -78 l-47 0 l-47 0 l0 78 l0 78 l-156 0 l-157 0 l0 62 l0 63 l16 0 l15 0 l0 31 l0 31 l16 0 l16 0 l0 31 l0 32 l15 0 l16 0 l0 15 l0 16 l16 0 l15 0 l0 31 l0 32 l16 0 l16 0 l0 15 l0 16 l15 0 l16 0 l0 31 l0 31 l15 0 l16 0 l0 16 l0 15 l16 0 l15 0 l0 32 l0 31 l16 0 l15 0 l0 16 l0 15 l63 0 ZM328 550 l-16 0 l0 -31 l0 -31 l-15 0 l-16 0 l0 -16 l0 -16 l-15 0 l-16 0 l0 -31 l0 -31 l-16 0 l-15 0 l0 -16 l0 -16 l-16 0 l-15 0 l0 -31 l0 -31 l-16 0 l-16 0 l0 -31 l0 -31 l94 0 l94 0 l0 156 l0 156 l-16 0 Z" /><glyph glyph-name="five" unicode="5" d="M312 706 l188 0 l0 -47 l0 -47 l-141 0 l-140 0 l0 -15 l0 -16 l-16 0 l-15 0 l0 -62 l0 -63 l15 0 l16 0 l0 16 l0 16 l93 0 l94 0 l0 -16 l0 -16 l32 0 l31 0 l0 -15 l0 -16 l15 0 l16 0 l0 -31 l0 -32 l16 0 l15 0 l0 -109 l0 -109 l-15 0 l-16 0 l0 -32 l0 -31 l-16 0 l-15 0 l0 -15 l0 -16 l-16 0 l-15 0 l0 -16 l0 -15 l-32 0 l-31 0 l0 -16 l0 -15 l-94 0 l-93 0 l0 15 l0 16 l-32 0 l-31 0 l0 15 l0 16 l-16 0 l-15 0 l0 16 l0 15 l-16 0 l-16 0 l0 31 l0 32 l-15 0 l-16 0 l0 31 l0 31 l47 0 l47 0 l0 -31 l0 -31 l16 0 l15 0 l0 -16 l0 -16 l16 0 l16 0 l0 -15 l0 -16 l93 0 l94 0 l0 16 l0 15 l16 0 l15 0 l0 16 l0 16 l16 0 l16 0 l0 94 l0 93 l-16 0 l-16 0 l0 16 l0 15 l-15 0 l-16 0 l0 16 l0 16 l-94 0 l-93 0 l0 -16 l0 -16 l-16 0 l-16 0 l0 -15 l0 -16 l-47 0 l-47 0 l0 63 l0 62 l16 0 l16 0 l0 63 l0 62 l15 0 l16 0 l0 63 l0 62 l187 0 Z" /><glyph glyph-name="six" unicode="6" d="M297 706 l78 0 l0 -15 l0 -16 l31 0 l32 0 l0 -16 l0 -15 l15 0 l16 0 l0 -32 l0 -31 l15 0 l16 0 l0 -31 l0 -31 l-47 0 l-47 0 l0 31 l0 31 l-31 0 l-31 0 l0 16 l0 15 l-47 0 l-47 0 l0 -15 l0 -16 l-31 0 l-31 0 l0 -31 l0 -31 l-16 0 l-16 0 l0 -63 l0 -62 l16 0 l16 0 l0 15 l0 16 l31 0 l31 0 l0 16 l0 15 l62 0 l63 0 l0 -15 l0 -16 l31 0 l32 0 l0 -16 l0 -15 l15 0 l16 0 l0 -16 l0 -16 l15 0 l16 0 l0 -31 l0 -31 l16 0 l15 0 l0 -78 l0 -78 l-15 0 l-16 0 l0 -32 l0 -31 l-16 0 l-15 0 l0 -15 l0 -16 l-16 0 l-15 0 l0 -16 l0 -15 l-32 0 l-31 0 l0 -16 l0 -15 l-78 0 l-78 0 l0 15 l0 16 l-31 0 l-32 0 l0 15 l0 16 l-15 0 l-16 0 l0 16 l0 15 l-16 0 l-15 0 l0 31 l0 32 l-16 0 l-16 0 l0 203 l0 203 l16 0 l16 0 l0 31 l0 31 l15 0 l16 0 l0 16 l0 16 l16 0 l15 0 l0 15 l0 16 l32 0 l31 0 l0 16 l0 15 l78 0 ZM297 362 l-47 0 l0 -15 l0 -16 l-31 0 l-31 0 l0 -31 l0 -31 l-16 0 l-16 0 l0 -47 l0 -47 l16 0 l16 0 l0 -31 l0 -32 l31 0 l31 0 l0 -15 l0 -16 l47 0 l47 0 l0 16 l0 15 l31 0 l31 0 l0 32 l0 31 l16 0 l16 0 l0 47 l0 47 l-16 0 l-16 0 l0 31 l0 31 l-31 0 l-31 0 l0 16 l0 15 l-47 0 Z" /><glyph glyph-name="seven" unicode="7" d="M281 706 l250 0 l0 -62 l0 -63 l-15 0 l-16 0 l0 -15 l0 -16 l-16 0 l-15 0 l0 -16 l0 -15 l-16 0 l-15 0 l0 -31 l0 -32 l-16 0 l-16 0 l0 -31 l0 -31 l-15 0 l-16 0 l0 -32 l0 -31 l-16 0 l-15 0 l0 -47 l0 -46 l-16 0 l-16 0 l0 -47 l0 -47 l-15 0 l-16 0 l0 -78 l0 -78 l-47 0 l-46 0 l0 93 l0 94 l15 0 l16 0 l0 47 l0 47 l15 0 l16 0 l0 47 l0 46 l16 0 l15 0 l0 32 l0 31 l16 0 l15 0 l0 31 l0 32 l16 0 l16 0 l0 31 l0 31 l15 0 l16 0 l0 16 l0 15 l16 0 l15 0 l0 16 l0 15 l-187 0 l-188 0 l0 47 l0 47 l250 0 Z" /><glyph glyph-name="eight" unicode="8" d="M281 706 l63 0 l0 -15 l0 -16 l31 0 l31 0 l0 -16 l0 -15 l16 0 l16 0 l0 -16 l0 -16 l15 0 l16 0 l0 -31 l0 -31 l15 0 l16 0 l0 -47 l0 -47 l-16 0 l-15 0 l0 -31 l0 -31 l-16 0 l-15 0 l0 -16 l0 -16 l15 0 l16 0 l0 -15 l0 -16 l15 0 l16 0 l0 -31 l0 -31 l16 0 l15 0 l0 -63 l0 -62 l-15 0 l-16 0 l0 -32 l0 -31 l-16 0 l-15 0 l0 -15 l0 -16 l-16 0 l-15 0 l0 -16 l0 -15 l-32 0 l-31 0 l0 -16 l0 -15 l-94 0 l-93 0 l0 15 l0 16 l-32 0 l-31 0 l0 15 l0 16 l-16 0 l-15 0 l0 16 l0 15 l-16 0 l-16 0 l0 31 l0 32 l-15 0 l-16 0 l0 62 l0 63 l16 0 l15 0 l0 31 l0 31 l16 0 l16 0 l0 16 l0 15 l15 0 l16 0 l0 16 l0 16 l-16 0 l-15 0 l0 31 l0 31 l-16 0 l-16 0 l0 47 l0 47 l16 0 l16 0 l0 31 l0 31 l15 0 l16 0 l0 16 l0 16 l16 0 l15 0 l0 15 l0 16 l32 0 l31 0 l0 16 l0 15 l62 0 ZM281 612 l-62 0 l0 -15 l0 -16 l-16 0 l-15 0 l0 -15 l0 -16 l-16 0 l-16 0 l0 -47 l0 -47 l16 0 l16 0 l0 -15 l0 -16 l93 0 l94 0 l0 16 l0 15 l16 0 l15 0 l0 47 l0 47 l-15 0 l-16 0 l0 16 l0 15 l-16 0 l-15 0 l0 16 l0 15 l-63 0 ZM281 331 l-93 0 l0 -15 l0 -16 l-16 0 l-16 0 l0 -16 l0 -15 l-15 0 l-16 0 l0 -63 l0 -62 l16 0 l15 0 l0 -16 l0 -16 l16 0 l16 0 l0 -15 l0 -16 l93 0 l94 0 l0 16 l0 15 l16 0 l15 0 l0 16 l0 16 l16 0 l16 0 l0 62 l0 63 l-16 0 l-16 0 l0 15 l0 16 l-15 0 l-16 0 l0 16 l0 15 l-94 0 Z" /><glyph glyph-name="nine" unicode="9" d="M266 706 l78 0 l0 -15 l0 -16 l31 0 l31 0 l0 -16 l0 -15 l16 0 l16 0 l0 -16 l0 -16 l15 0 l16 0 l0 -31 l0 -31 l15 0 l16 0 l0 -203 l0 -203 l-16 0 l-15 0 l0 -32 l0 -31 l-16 0 l-15 0 l0 -15 l0 -16 l-16 0 l-16 0 l0 -16 l0 -15 l-31 0 l-31 0 l0 -16 l0 -15 l-78 0 l-78 0 l0 15 l0 16 l-32 0 l-31 0 l0 15 l0 16 l-16 0 l-15 0 l0 31 l0 31 l-16 0 l-16 0 l0 32 l0 31 l47 0 l47 0 l0 -31 l0 -32 l32 0 l31 0 l0 -15 l0 -16 l47 0 l46 0 l0 16 l0 15 l32 0 l31 0 l0 32 l0 31 l16 0 l15 0 l0 63 l0 62 l-15 0 l-16 0 l0 -16 l0 -15 l-31 0 l-32 0 l0 -16 l0 -15 l-62 0 l-62 0 l0 15 l0 16 l-32 0 l-31 0 l0 15 l0 16 l-16 0 l-15 0 l0 16 l0 15 l-16 0 l-16 0 l0 31 l0 32 l-15 0 l-16 0 l0 78 l0 78 l16 0 l15 0 l0 31 l0 31 l16 0 l16 0 l0 16 l0 16 l15 0 l16 0 l0 15 l0 16 l31 0 l32 0 l0 16 l0 15 l78 0 ZM266 612 l-47 0 l0 -15 l0 -16 l-31 0 l-32 0 l0 -31 l0 -31 l-15 0 l-16 0 l0 -47 l0 -47 l16 0 l15 0 l0 -31 l0 -32 l32 0 l31 0 l0 -15 l0 -16 l47 0 l46 0 l0 16 l0 15 l32 0 l31 0 l0 32 l0 31 l16 0 l15 0 l0 47 l0 47 l-15 0 l-16 0 l0 31 l0 31 l-31 0 l-32 0 l0 16 l0 15 l-46 0 Z" /><glyph glyph-name="colon" unicode=":" d="M141 81 l47 0 l0 -47 l0 -46 l-47 0 l-47 0 l0 46 l0 47 l47 0 ZM141 488 l47 0 l0 -47 l0 -47 l-47 0 l-47 0 l0 47 l0 47 l47 0 Z" /><glyph glyph-name="semicolon" unicode=";" d="M141 81 l47 0 l0 -62 l0 -63 l-16 0 l-16 0 l0 -15 l0 -16 l-15 0 l-16 0 l0 -16 l0 -15 l-16 0 l-15 0 l0 15 l0 16 l15 0 l16 0 l0 16 l0 15 l16 0 l15 0 l0 16 l0 16 l-31 0 l-31 0 l0 46 l0 47 l47 0 ZM141 488 l47 0 l0 -47 l0 -47 l-47 0 l-47 0 l0 47 l0 47 l47 0 Z" /><glyph glyph-name="less" unicode="&lt;" d="M500 581 l31 0 l0 -47 l0 -46 l-31 0 l-31 0 l0 -16 l0 -16 l-31 0 l-32 0 l0 -15 l0 -16 l-31 0 l-31 0 l0 -16 l0 -15 l-32 0 l-31 0 l0 -16 l0 -16 l-31 0 l-31 0 l0 -31 l0 -31 l31 0 l31 0 l0 -16 l0 -15 l31 0 l32 0 l0 -16 l0 -15 l31 0 l31 0 l0 -16 l0 -16 l32 0 l31 0 l0 -15 l0 -16 l31 0 l31 0 l0 -47 l0 -47 l-31 0 l-31 0 l0 16 l0 15 l-31 0 l-32 0 l0 16 l0 16 l-31 0 l-31 0 l0 15 l0 16 l-32 0 l-31 0 l0 16 l0 15 l-31 0 l-31 0 l0 16 l0 16 l-31 0 l-32 0 l0 15 l0 16 l-31 0 l-31 0 l0 15 l0 16 l-32 0 l-31 0 l0 31 l0 31 l31 0 l32 0 l0 16 l0 16 l31 0 l31 0 l0 15 l0 16 l32 0 l31 0 l0 16 l0 15 l31 0 l31 0 l0 16 l0 16 l31 0 l32 0 l0 15 l0 16 l31 0 l31 0 l0 15 l0 16 l32 0 l31 0 l0 16 l0 15 l31 0 Z" /><glyph glyph-name="equal" unicode="=" d="M297 300 l265 0 l0 -47 l0 -47 l-265 0 l-266 0 l0 47 l0 47 l266 0 ZM297 488 l265 0 l0 -47 l0 -47 l-265 0 l-266 0 l0 47 l0 47 l266 0 Z" /><glyph glyph-name="greater" unicode="&gt;" d="M94 581 l31 0 l0 -15 l0 -16 l31 0 l32 0 l0 -16 l0 -15 l31 0 l31 0 l0 -16 l0 -15 l31 0 l31 0 l0 -16 l0 -16 l32 0 l31 0 l0 -15 l0 -16 l31 0 l32 0 l0 -16 l0 -15 l31 0 l31 0 l0 -16 l0 -16 l31 0 l31 0 l0 -31 l0 -31 l-31 0 l-31 0 l0 -16 l0 -15 l-31 0 l-31 0 l0 -16 l0 -15 l-32 0 l-31 0 l0 -16 l0 -16 l-31 0 l-32 0 l0 -15 l0 -16 l-31 0 l-31 0 l0 -16 l0 -15 l-31 0 l-31 0 l0 -16 l0 -16 l-32 0 l-31 0 l0 -15 l0 -16 l-31 0 l-32 0 l0 47 l0 47 l32 0 l31 0 l0 16 l0 15 l31 0 l32 0 l0 16 l0 16 l31 0 l31 0 l0 15 l0 16 l31 0 l31 0 l0 15 l0 16 l32 0 l31 0 l0 31 l0 31 l-31 0 l-32 0 l0 16 l0 16 l-31 0 l-31 0 l0 15 l0 16 l-31 0 l-31 0 l0 16 l0 15 l-32 0 l-31 0 l0 16 l0 16 l-31 0 l-32 0 l0 46 l0 47 l32 0 Z" /><glyph glyph-name="question" unicode="?" d="M266 81 l46 0 l0 -47 l0 -46 l-46 0 l-47 0 l0 46 l0 47 l47 0 ZM266 706 l78 0 l0 -15 l0 -16 l31 0 l31 0 l0 -16 l0 -15 l16 0 l16 0 l0 -16 l0 -16 l15 0 l16 0 l0 -31 l0 -31 l15 0 l16 0 l0 -62 l0 -63 l-16 0 l-15 0 l0 -31 l0 -32 l-16 0 l-15 0 l0 -15 l0 -16 l-16 0 l-16 0 l0 -15 l0 -16 l-15 0 l-16 0 l0 -16 l0 -15 l-16 0 l-15 0 l0 -16 l0 -15 l-16 0 l-16 0 l0 -32 l0 -31 l-46 0 l-47 0 l0 31 l0 32 l15 0 l16 0 l0 31 l0 31 l16 0 l15 0 l0 16 l0 15 l16 0 l15 0 l0 16 l0 15 l16 0 l16 0 l0 16 l0 16 l15 0 l16 0 l0 15 l0 16 l16 0 l15 0 l0 63 l0 62 l-15 0 l-16 0 l0 16 l0 15 l-16 0 l-15 0 l0 16 l0 15 l-78 0 l-78 0 l0 -15 l0 -16 l-16 0 l-16 0 l0 -15 l0 -16 l-15 0 l-16 0 l0 -31 l0 -31 l-47 0 l-47 0 l0 31 l0 31 l16 0 l15 0 l0 31 l0 31 l16 0 l16 0 l0 16 l0 16 l15 0 l16 0 l0 15 l0 16 l31 0 l32 0 l0 16 l0 15 l78 0 Z" /><glyph glyph-name="at" unicode="@" d="M484 706 l110 0 l0 -15 l0 -16 l47 0 l47 0 l0 -16 l0 -15 l31 0 l31 0 l0 -16 l0 -16 l16 0 l15 0 l0 -15 l0 -16 l16 0 l15 0 l0 -15 l0 -16 l16 0 l16 0 l0 -31 l0 -31 l15 0 l16 0 l0 -32 l0 -31 l16 0 l15 0 l0 -78 l0 -78 l-15 0 l-16 0 l0 -31 l0 -32 l-16 0 l-15 0 l0 -31 l0 -31 l-16 0 l-16 0 l0 -16 l0 -16 l-31 0 l-31 0 l0 -15 l0 -16 l-78 0 l-78 0 l0 16 l0 15 l-16 0 l-16 0 l0 16 l0 16 l-15 0 l-16 0 l0 -16 l0 -16 l-15 0 l-16 0 l0 -15 l0 -16 l-78 0 l-78 0 l0 16 l0 15 l-16 0 l-16 0 l0 16 l0 16 l-15 0 l-16 0 l0 15 l0 16 l-15 0 l-16 0 l0 63 l0 62 l16 0 l15 0 l0 31 l0 31 l16 0 l15 0 l0 32 l0 31 l16 0 l16 0 l0 16 l0 15 l15 0 l16 0 l0 16 l0 16 l31 0 l32 0 l0 15 l0 16 l62 0 l62 0 l0 -16 l0 -15 l16 0 l16 0 l0 -16 l0 -16 l15 0 l16 0 l0 16 l0 16 l31 0 l32 0 l0 -32 l0 -31 l-16 0 l-16 0 l0 -47 l0 -47 l-15 0 l-16 0 l0 -47 l0 -46 l-16 0 l-15 0 l0 -32 l0 -31 l15 0 l16 0 l0 -16 l0 -15 l63 0 l62 0 l0 15 l0 16 l16 0 l15 0 l0 16 l0 15 l16 0 l15 0 l0 32 l0 31 l16 0 l16 0 l0 78 l0 78 l-16 0 l-16 0 l0 31 l0 32 l-15 0 l-16 0 l0 15 l0 16 l-15 0 l-16 0 l0 15 l0 16 l-16 0 l-15 0 l0 16 l0 15 l-16 0 l-15 0 l0 16 l0 15 l-47 0 l-47 0 l0 16 l0 16 l-110 0 l-109 0 l0 -16 l0 -16 l-47 0 l-47 0 l0 -15 l0 -16 l-15 0 l-16 0 l0 -15 l0 -16 l-16 0 l-15 0 l0 -16 l0 -15 l-16 0 l-15 0 l0 -16 l0 -15 l-16 0 l-16 0 l0 -16 l0 -16 l-15 0 l-16 0 l0 -47 l0 -47 l-16 0 l-15 0 l0 -78 l0 -78 l15 0 l16 0 l0 -47 l0 -47 l16 0 l15 0 l0 -15 l0 -16 l16 0 l16 0 l0 -15 l0 -16 l15 0 l16 0 l0 -16 l0 -15 l31 0 l31 0 l0 -16 l0 -15 l31 0 l32 0 l0 -16 l0 -16 l125 0 l125 0 l0 16 l0 16 l47 0 l47 0 l0 -16 l0 -16 l-16 0 l-16 0 l0 -15 l0 -16 l-31 0 l-31 0 l0 -16 l0 -15 l-125 0 l-125 0 l0 15 l0 16 l-47 0 l-47 0 l0 16 l0 15 l-31 0 l-31 0 l0 16 l0 16 l-16 0 l-16 0 l0 15 l0 16 l-15 0 l-16 0 l0 15 l0 16 l-16 0 l-15 0 l0 31 l0 31 l-16 0 l-16 0 l0 47 l0 47 l-15 0 l-16 0 l0 78 l0 78 l16 0 l15 0 l0 47 l0 47 l16 0 l16 0 l0 32 l0 31 l15 0 l16 0 l0 15 l0 16 l16 0 l15 0 l0 16 l0 15 l16 0 l16 0 l0 16 l0 15 l15 0 l16 0 l0 16 l0 16 l31 0 l31 0 l0 15 l0 16 l47 0 l47 0 l0 16 l0 15 l109 0 ZM500 456 l-62 0 l0 -15 l0 -16 l-32 0 l-31 0 l0 -31 l0 -32 l-16 0 l-15 0 l0 -31 l0 -31 l-16 0 l-16 0 l0 -62 l0 -63 l16 0 l16 0 l0 -16 l0 -15 l62 0 l63 0 l0 15 l0 16 l15 0 l16 0 l0 16 l0 15 l16 0 l15 0 l0 16 l0 16 l16 0 l15 0 l0 46 l0 47 l16 0 l16 0 l0 47 l0 47 l-16 0 l-16 0 l0 16 l0 15 l-62 0 Z" /><glyph glyph-name="A" unicode="A" d="M359 706 l79 0 l0 -31 l0 -31 l15 0 l16 0 l0 -47 l0 -47 l15 0 l16 0 l0 -47 l0 -47 l16 0 l15 0 l0 -31 l0 -31 l16 0 l15 0 l0 -47 l0 -47 l16 0 l16 0 l0 -47 l0 -47 l15 0 l16 0 l0 -31 l0 -31 l16 0 l15 0 l0 -47 l0 -47 l16 0 l16 0 l0 -31 l0 -31 l-47 0 l-47 0 l0 15 l0 16 l-16 0 l-16 0 l0 47 l0 46 l-15 0 l-16 0 l0 16 l0 16 l-172 0 l-171 0 l0 -16 l0 -16 l-16 0 l-16 0 l0 -46 l0 -47 l-15 0 l-16 0 l0 -16 l0 -15 l-47 0 l-47 0 l0 31 l0 31 l16 0 l15 0 l0 47 l0 47 l16 0 l16 0 l0 31 l0 31 l15 0 l16 0 l0 47 l0 47 l16 0 l15 0 l0 47 l0 47 l16 0 l16 0 l0 31 l0 31 l15 0 l16 0 l0 47 l0 47 l15 0 l16 0 l0 47 l0 47 l16 0 l15 0 l0 31 l0 31 l78 0 ZM359 581 l-15 0 l0 -31 l0 -31 l-16 0 l-16 0 l0 -47 l0 -47 l-15 0 l-16 0 l0 -31 l0 -32 l-15 0 l-16 0 l0 -46 l0 -47 l-16 0 l-15 0 l0 -16 l0 -15 l140 0 l141 0 l0 15 l0 16 l-16 0 l-15 0 l0 47 l0 46 l-16 0 l-15 0 l0 32 l0 31 l-16 0 l-16 0 l0 47 l0 47 l-15 0 l-16 0 l0 31 l0 31 l-16 0 Z" /><glyph glyph-name="B" unicode="B" d="M281 706 l188 0 l0 -15 l0 -16 l31 0 l31 0 l0 -16 l0 -15 l16 0 l15 0 l0 -32 l0 -31 l16 0 l16 0 l0 -62 l0 -63 l-16 0 l-16 0 l0 -31 l0 -31 l-15 0 l-16 0 l0 -16 l0 -16 l16 0 l15 0 l0 -15 l0 -16 l16 0 l16 0 l0 -31 l0 -31 l15 0 l16 0 l0 -78 l0 -79 l-16 0 l-15 0 l0 -31 l0 -31 l-16 0 l-16 0 l0 -16 l0 -15 l-31 0 l-31 0 l0 -16 l0 -15 l-203 0 l-203 0 l0 359 l0 359 l187 0 ZM328 612 l-140 0 l0 -93 l0 -94 l140 0 l141 0 l0 16 l0 15 l15 0 l16 0 l0 63 l0 62 l-16 0 l-15 0 l0 16 l0 15 l-141 0 ZM328 331 l-140 0 l0 -125 l0 -125 l140 0 l141 0 l0 16 l0 15 l15 0 l16 0 l0 16 l0 16 l16 0 l15 0 l0 62 l0 63 l-15 0 l-16 0 l0 15 l0 16 l-16 0 l-15 0 l0 16 l0 15 l-141 0 Z" /><glyph glyph-name="C" unicode="C" d="M406 706 l94 0 l0 -15 l0 -16 l47 0 l47 0 l0 -16 l0 -15 l15 0 l16 0 l0 -16 l0 -16 l16 0 l15 0 l0 -15 l0 -16 l16 0 l16 0 l0 -15 l0 -16 l15 0 l16 0 l0 -47 l0 -47 l-47 0 l-47 0 l0 32 l0 31 l-16 0 l-15 0 l0 15 l0 16 l-16 0 l-16 0 l0 16 l0 15 l-31 0 l-31 0 l0 16 l0 15 l-94 0 l-94 0 l0 -15 l0 -16 l-31 0 l-31 0 l0 -15 l0 -16 l-16 0 l-15 0 l0 -16 l0 -15 l-16 0 l-15 0 l0 -31 l0 -32 l-16 0 l-16 0 l0 -109 l0 -109 l16 0 l16 0 l0 -32 l0 -31 l15 0 l16 0 l0 -16 l0 -15 l15 0 l16 0 l0 -16 l0 -16 l31 0 l31 0 l0 -15 l0 -16 l94 0 l94 0 l0 16 l0 15 l31 0 l31 0 l0 16 l0 16 l16 0 l16 0 l0 15 l0 16 l15 0 l16 0 l0 31 l0 32 l47 0 l47 0 l0 -47 l0 -47 l-16 0 l-15 0 l0 -16 l0 -16 l-16 0 l-16 0 l0 -15 l0 -16 l-15 0 l-16 0 l0 -15 l0 -16 l-16 0 l-15 0 l0 -16 l0 -15 l-47 0 l-47 0 l0 -16 l0 -15 l-94 0 l-94 0 l0 15 l0 16 l-46 0 l-47 0 l0 15 l0 16 l-16 0 l-15 0 l0 16 l0 15 l-16 0 l-16 0 l0 16 l0 15 l-15 0 l-16 0 l0 16 l0 16 l-16 0 l-15 0 l0 47 l0 47 l-16 0 l-16 0 l0 109 l0 109 l16 0 l16 0 l0 47 l0 47 l15 0 l16 0 l0 16 l0 15 l16 0 l15 0 l0 16 l0 15 l16 0 l16 0 l0 16 l0 16 l15 0 l16 0 l0 15 l0 16 l47 0 l46 0 l0 16 l0 15 l94 0 Z" /><glyph glyph-name="D" unicode="D" d="M266 706 l172 0 l0 -15 l0 -16 l46 0 l47 0 l0 -16 l0 -15 l16 0 l15 0 l0 -16 l0 -16 l16 0 l16 0 l0 -15 l0 -16 l15 0 l16 0 l0 -15 l0 -16 l16 0 l15 0 l0 -47 l0 -47 l16 0 l16 0 l0 -109 l0 -109 l-16 0 l-16 0 l0 -47 l0 -47 l-15 0 l-16 0 l0 -16 l0 -16 l-16 0 l-15 0 l0 -15 l0 -16 l-16 0 l-16 0 l0 -15 l0 -16 l-15 0 l-16 0 l0 -16 l0 -15 l-47 0 l-46 0 l0 -16 l0 -15 l-172 0 l-172 0 l0 359 l0 359 l172 0 ZM312 612 l-124 0 l0 -265 l0 -266 l124 0 l126 0 l0 16 l0 15 l31 0 l31 0 l0 16 l0 16 l16 0 l15 0 l0 15 l0 16 l16 0 l15 0 l0 31 l0 32 l16 0 l16 0 l0 109 l0 109 l-16 0 l-16 0 l0 32 l0 31 l-15 0 l-16 0 l0 15 l0 16 l-15 0 l-16 0 l0 16 l0 15 l-31 0 l-31 0 l0 16 l0 15 l-126 0 Z" /><glyph glyph-name="E" unicode="E" d="M359 706 l266 0 l0 -47 l0 -47 l-219 0 l-218 0 l0 -93 l0 -94 l187 0 l187 0 l0 -47 l0 -47 l-187 0 l-187 0 l0 -125 l0 -125 l218 0 l219 0 l0 -47 l0 -46 l-266 0 l-265 0 l0 359 l0 359 l265 0 Z" /><glyph glyph-name="F" unicode="F" d="M359 706 l266 0 l0 -47 l0 -47 l-219 0 l-218 0 l0 -93 l0 -94 l171 0 l172 0 l0 -47 l0 -47 l-172 0 l-171 0 l0 -172 l0 -171 l-47 0 l-47 0 l0 359 l0 359 l265 0 Z" /><glyph glyph-name="G" unicode="G" d="M406 706 l94 0 l0 -15 l0 -16 l47 0 l47 0 l0 -16 l0 -15 l15 0 l16 0 l0 -16 l0 -16 l16 0 l15 0 l0 -15 l0 -16 l16 0 l16 0 l0 -15 l0 -16 l15 0 l16 0 l0 -47 l0 -47 l-47 0 l-47 0 l0 32 l0 31 l-16 0 l-15 0 l0 15 l0 16 l-16 0 l-16 0 l0 16 l0 15 l-31 0 l-31 0 l0 16 l0 15 l-94 0 l-94 0 l0 -15 l0 -16 l-31 0 l-31 0 l0 -15 l0 -16 l-16 0 l-15 0 l0 -16 l0 -15 l-16 0 l-15 0 l0 -31 l0 -32 l-16 0 l-16 0 l0 -109 l0 -109 l16 0 l16 0 l0 -32 l0 -31 l15 0 l16 0 l0 -16 l0 -15 l15 0 l16 0 l0 -16 l0 -16 l31 0 l31 0 l0 -15 l0 -16 l94 0 l94 0 l0 16 l0 15 l31 0 l31 0 l0 16 l0 16 l16 0 l16 0 l0 31 l0 31 l15 0 l16 0 l0 32 l0 31 l-94 0 l-93 0 l0 47 l0 46 l140 0 l141 0 l0 -187 l0 -187 l-47 0 l-47 0 l0 46 l0 47 l-16 0 l-15 0 l0 -15 l0 -16 l-16 0 l-16 0 l0 -16 l0 -15 l-31 0 l-31 0 l0 -16 l0 -15 l-94 0 l-94 0 l0 15 l0 16 l-46 0 l-47 0 l0 15 l0 16 l-16 0 l-15 0 l0 16 l0 15 l-16 0 l-16 0 l0 16 l0 15 l-15 0 l-16 0 l0 16 l0 16 l-16 0 l-15 0 l0 47 l0 47 l-16 0 l-16 0 l0 109 l0 109 l16 0 l16 0 l0 47 l0 47 l15 0 l16 0 l0 16 l0 15 l16 0 l15 0 l0 16 l0 15 l16 0 l16 0 l0 16 l0 16 l15 0 l16 0 l0 15 l0 16 l47 0 l46 0 l0 16 l0 15 l94 0 Z" /><glyph glyph-name="H" unicode="H" d="M141 706 l47 0 l0 -140 l0 -141 l187 0 l187 0 l0 141 l0 140 l47 0 l47 0 l0 -359 l0 -359 l-47 0 l-47 0 l0 171 l0 172 l-187 0 l-187 0 l0 -172 l0 -171 l-47 0 l-47 0 l0 359 l0 359 l47 0 Z" /><glyph glyph-name="I" unicode="I" d="M141 706 l47 0 l0 -359 l0 -359 l-47 0 l-47 0 l0 359 l0 359 l47 0 Z" /><glyph glyph-name="J" unicode="J" d="M391 706 l47 0 l0 -297 l0 -297 l-16 0 l-16 0 l0 -31 l0 -31 l-15 0 l-16 0 l0 -16 l0 -15 l-31 0 l-32 0 l0 -16 l0 -15 l-78 0 l-78 0 l0 15 l0 16 l-31 0 l-31 0 l0 15 l0 16 l-16 0 l-16 0 l0 31 l0 31 l-15 0 l-16 0 l0 79 l0 78 l47 0 l47 0 l0 -63 l0 -62 l16 0 l15 0 l0 -16 l0 -16 l16 0 l16 0 l0 -15 l0 -16 l46 0 l47 0 l0 16 l0 15 l16 0 l15 0 l0 16 l0 16 l16 0 l16 0 l0 281 l0 281 l47 0 Z" /><glyph glyph-name="K" unicode="K" d="M109 706 l47 0 l0 -156 l0 -156 l16 0 l16 0 l0 15 l0 16 l15 0 l16 0 l0 16 l0 15 l15 0 l16 0 l0 16 l0 16 l16 0 l15 0 l0 15 l0 16 l16 0 l15 0 l0 15 l0 16 l16 0 l16 0 l0 16 l0 15 l15 0 l16 0 l0 16 l0 15 l16 0 l15 0 l0 16 l0 16 l16 0 l16 0 l0 15 l0 16 l15 0 l16 0 l0 16 l0 15 l62 0 l63 0 l0 -15 l0 -16 l-16 0 l-16 0 l0 -16 l0 -15 l-15 0 l-16 0 l0 -16 l0 -16 l-15 0 l-16 0 l0 -15 l0 -16 l-16 0 l-15 0 l0 -15 l0 -16 l-16 0 l-15 0 l0 -16 l0 -15 l-16 0 l-16 0 l0 -16 l0 -15 l-15 0 l-16 0 l0 -16 l0 -16 l-16 0 l-15 0 l0 -15 l0 -16 l-16 0 l-16 0 l0 -31 l0 -32 l16 0 l16 0 l0 -15 l0 -16 l15 0 l16 0 l0 -15 l0 -16 l16 0 l15 0 l0 -16 l0 -15 l16 0 l16 0 l0 -16 l0 -15 l15 0 l16 0 l0 -16 l0 -16 l15 0 l16 0 l0 -15 l0 -16 l16 0 l15 0 l0 -16 l0 -15 l16 0 l15 0 l0 -16 l0 -16 l16 0 l16 0 l0 -15 l0 -16 l15 0 l16 0 l0 -15 l0 -16 l16 0 l15 0 l0 -31 l0 -31 l-47 0 l-47 0 l0 15 l0 16 l-15 0 l-16 0 l0 15 l0 16 l-15 0 l-16 0 l0 16 l0 15 l-16 0 l-15 0 l0 16 l0 15 l-16 0 l-15 0 l0 16 l0 16 l-16 0 l-16 0 l0 15 l0 16 l-15 0 l-16 0 l0 16 l0 15 l-16 0 l-15 0 l0 16 l0 16 l-16 0 l-16 0 l0 15 l0 16 l-15 0 l-16 0 l0 15 l0 16 l-15 0 l-16 0 l0 16 l0 15 l-16 0 l-15 0 l0 -15 l0 -16 l-16 0 l-15 0 l0 -16 l0 -15 l-16 0 l-16 0 l0 -141 l0 -140 l-47 0 l-47 0 l0 359 l0 359 l47 0 Z" /><glyph glyph-name="L" unicode="L" d="M141 706 l47 0 l0 -312 l0 -313 l187 0 l187 0 l0 -47 l0 -46 l-234 0 l-234 0 l0 359 l0 359 l47 0 Z" /><glyph glyph-name="M" unicode="M" d="M156 706 l63 0 l0 -15 l0 -16 l15 0 l16 0 l0 -47 l0 -47 l16 0 l15 0 l0 -47 l0 -46 l16 0 l15 0 l0 -47 l0 -47 l16 0 l16 0 l0 -47 l0 -47 l15 0 l16 0 l0 -47 l0 -47 l16 0 l15 0 l0 -47 l0 -47 l16 0 l16 0 l0 47 l0 47 l15 0 l16 0 l0 47 l0 47 l15 0 l16 0 l0 47 l0 47 l16 0 l15 0 l0 47 l0 47 l16 0 l15 0 l0 46 l0 47 l16 0 l16 0 l0 47 l0 47 l15 0 l16 0 l0 16 l0 15 l63 0 l62 0 l0 -359 l0 -359 l-47 0 l-47 0 l0 234 l0 234 l-15 0 l-16 0 l0 -47 l0 -47 l-16 0 l-15 0 l0 -46 l0 -47 l-16 0 l-16 0 l0 -47 l0 -47 l-15 0 l-16 0 l0 -47 l0 -47 l-15 0 l-16 0 l0 -47 l0 -46 l-78 0 l-78 0 l0 46 l0 47 l-16 0 l-16 0 l0 47 l0 47 l-15 0 l-16 0 l0 47 l0 47 l-15 0 l-16 0 l0 47 l0 46 l-16 0 l-15 0 l0 47 l0 47 l-16 0 l-15 0 l0 -234 l0 -234 l-47 0 l-47 0 l0 359 l0 359 l62 0 Z" /><glyph glyph-name="N" unicode="N" d="M156 706 l63 0 l0 -15 l0 -16 l15 0 l16 0 l0 -31 l0 -32 l16 0 l15 0 l0 -15 l0 -16 l16 0 l15 0 l0 -31 l0 -31 l16 0 l16 0 l0 -16 l0 -15 l15 0 l16 0 l0 -32 l0 -31 l16 0 l15 0 l0 -16 l0 -15 l16 0 l16 0 l0 -32 l0 -31 l15 0 l16 0 l0 -15 l0 -16 l15 0 l16 0 l0 -31 l0 -31 l16 0 l15 0 l0 -16 l0 -16 l16 0 l15 0 l0 -31 l0 -31 l16 0 l16 0 l0 281 l0 281 l47 0 l47 0 l0 -359 l0 -359 l-63 0 l-63 0 l0 15 l0 16 l-15 0 l-16 0 l0 31 l0 31 l-15 0 l-16 0 l0 16 l0 15 l-16 0 l-15 0 l0 32 l0 31 l-16 0 l-15 0 l0 16 l0 15 l-16 0 l-16 0 l0 32 l0 31 l-15 0 l-16 0 l0 15 l0 16 l-16 0 l-15 0 l0 31 l0 31 l-16 0 l-16 0 l0 16 l0 16 l-15 0 l-16 0 l0 31 l0 31 l-15 0 l-16 0 l0 16 l0 16 l-16 0 l-15 0 l0 31 l0 31 l-16 0 l-15 0 l0 -281 l0 -281 l-47 0 l-47 0 l0 359 l0 359 l62 0 Z" /><glyph glyph-name="O" unicode="O" d="M406 706 l94 0 l0 -15 l0 -16 l47 0 l47 0 l0 -16 l0 -15 l15 0 l16 0 l0 -16 l0 -16 l16 0 l15 0 l0 -15 l0 -16 l16 0 l16 0 l0 -15 l0 -16 l15 0 l16 0 l0 -47 l0 -47 l15 0 l16 0 l0 -109 l0 -109 l-16 0 l-15 0 l0 -47 l0 -47 l-16 0 l-15 0 l0 -16 l0 -16 l-16 0 l-16 0 l0 -15 l0 -16 l-15 0 l-16 0 l0 -15 l0 -16 l-16 0 l-15 0 l0 -16 l0 -15 l-47 0 l-47 0 l0 -16 l0 -15 l-94 0 l-94 0 l0 15 l0 16 l-46 0 l-47 0 l0 15 l0 16 l-16 0 l-15 0 l0 16 l0 15 l-16 0 l-16 0 l0 16 l0 15 l-15 0 l-16 0 l0 16 l0 16 l-16 0 l-15 0 l0 47 l0 47 l-16 0 l-16 0 l0 109 l0 109 l16 0 l16 0 l0 47 l0 47 l15 0 l16 0 l0 16 l0 15 l16 0 l15 0 l0 16 l0 15 l16 0 l16 0 l0 16 l0 16 l15 0 l16 0 l0 15 l0 16 l47 0 l46 0 l0 16 l0 15 l94 0 ZM406 612 l-94 0 l0 -15 l0 -16 l-31 0 l-31 0 l0 -15 l0 -16 l-16 0 l-15 0 l0 -16 l0 -15 l-16 0 l-15 0 l0 -31 l0 -32 l-16 0 l-16 0 l0 -109 l0 -109 l16 0 l16 0 l0 -32 l0 -31 l15 0 l16 0 l0 -16 l0 -15 l15 0 l16 0 l0 -16 l0 -16 l31 0 l31 0 l0 -15 l0 -16 l94 0 l94 0 l0 16 l0 15 l31 0 l31 0 l0 16 l0 16 l16 0 l16 0 l0 15 l0 16 l15 0 l16 0 l0 31 l0 32 l16 0 l15 0 l0 109 l0 109 l-15 0 l-16 0 l0 32 l0 31 l-16 0 l-15 0 l0 15 l0 16 l-16 0 l-16 0 l0 16 l0 15 l-31 0 l-31 0 l0 16 l0 15 l-94 0 Z" /><glyph glyph-name="P" unicode="P" d="M297 706 l203 0 l0 -15 l0 -16 l31 0 l31 0 l0 -16 l0 -15 l16 0 l16 0 l0 -32 l0 -31 l15 0 l16 0 l0 -93 l0 -94 l-16 0 l-15 0 l0 -32 l0 -31 l-16 0 l-16 0 l0 -15 l0 -16 l-31 0 l-31 0 l0 -16 l0 -15 l-156 0 l-156 0 l0 -141 l0 -140 l-47 0 l-47 0 l0 359 l0 359 l203 0 ZM328 612 l-140 0 l0 -124 l0 -126 l140 0 l141 0 l0 16 l0 16 l15 0 l16 0 l0 15 l0 16 l16 0 l15 0 l0 63 l0 62 l-15 0 l-16 0 l0 16 l0 15 l-16 0 l-15 0 l0 16 l0 15 l-141 0 Z" /><glyph glyph-name="Q" unicode="Q" d="M406 706 l94 0 l0 -15 l0 -16 l47 0 l47 0 l0 -16 l0 -15 l15 0 l16 0 l0 -16 l0 -16 l16 0 l15 0 l0 -15 l0 -16 l16 0 l16 0 l0 -15 l0 -16 l15 0 l16 0 l0 -47 l0 -47 l15 0 l16 0 l0 -109 l0 -109 l-16 0 l-15 0 l0 -47 l0 -47 l-16 0 l-15 0 l0 -16 l0 -16 l15 0 l16 0 l0 -15 l0 -16 l15 0 l16 0 l0 -31 l0 -31 l-16 0 l-15 0 l0 -16 l0 -15 l-16 0 l-15 0 l0 15 l0 16 l-16 0 l-16 0 l0 15 l0 16 l-31 0 l-31 0 l0 -16 l0 -15 l-47 0 l-47 0 l0 -16 l0 -15 l-94 0 l-94 0 l0 15 l0 16 l-46 0 l-47 0 l0 15 l0 16 l-16 0 l-15 0 l0 16 l0 15 l-16 0 l-16 0 l0 16 l0 15 l-15 0 l-16 0 l0 16 l0 16 l-16 0 l-15 0 l0 47 l0 47 l-16 0 l-16 0 l0 109 l0 109 l16 0 l16 0 l0 47 l0 47 l15 0 l16 0 l0 16 l0 15 l16 0 l15 0 l0 16 l0 15 l16 0 l16 0 l0 16 l0 16 l15 0 l16 0 l0 15 l0 16 l47 0 l46 0 l0 16 l0 15 l94 0 ZM406 612 l-94 0 l0 -15 l0 -16 l-31 0 l-31 0 l0 -15 l0 -16 l-16 0 l-15 0 l0 -16 l0 -15 l-16 0 l-15 0 l0 -31 l0 -32 l-16 0 l-16 0 l0 -109 l0 -109 l16 0 l16 0 l0 -32 l0 -31 l15 0 l16 0 l0 -16 l0 -15 l15 0 l16 0 l0 -16 l0 -16 l31 0 l31 0 l0 -15 l0 -16 l94 0 l94 0 l0 16 l0 15 l31 0 l31 0 l0 16 l0 16 l-15 0 l-16 0 l0 15 l0 16 l-15 0 l-16 0 l0 16 l0 15 l-16 0 l-15 0 l0 16 l0 16 l15 0 l16 0 l0 15 l0 16 l31 0 l31 0 l0 -16 l0 -15 l16 0 l16 0 l0 -16 l0 -16 l15 0 l16 0 l0 16 l0 16 l16 0 l15 0 l0 109 l0 109 l-15 0 l-16 0 l0 32 l0 31 l-16 0 l-15 0 l0 15 l0 16 l-16 0 l-16 0 l0 16 l0 15 l-31 0 l-31 0 l0 16 l0 15 l-94 0 Z" /><glyph glyph-name="R" unicode="R" d="M297 706 l203 0 l0 -15 l0 -16 l31 0 l31 0 l0 -16 l0 -15 l16 0 l16 0 l0 -32 l0 -31 l15 0 l16 0 l0 -78 l0 -78 l-16 0 l-15 0 l0 -31 l0 -32 l-16 0 l-16 0 l0 -15 l0 -16 l16 0 l16 0 l0 -31 l0 -31 l15 0 l16 0 l0 -110 l0 -109 l16 0 l15 0 l0 -31 l0 -31 l-47 0 l-47 0 l0 15 l0 16 l-15 0 l-16 0 l0 109 l0 110 l-15 0 l-16 0 l0 15 l0 16 l-16 0 l-15 0 l0 15 l0 16 l-141 0 l-140 0 l0 -156 l0 -156 l-47 0 l-47 0 l0 359 l0 359 l203 0 ZM344 612 l-156 0 l0 -109 l0 -109 l140 0 l141 0 l0 15 l0 16 l15 0 l16 0 l0 16 l0 15 l16 0 l15 0 l0 63 l0 62 l-15 0 l-16 0 l0 16 l0 15 l-156 0 Z" /><glyph glyph-name="S" unicode="S" d="M328 706 l141 0 l0 -15 l0 -16 l31 0 l31 0 l0 -16 l0 -15 l16 0 l15 0 l0 -32 l0 -31 l16 0 l16 0 l0 -31 l0 -31 l-47 0 l-47 0 l0 15 l0 16 l-16 0 l-15 0 l0 16 l0 15 l-16 0 l-15 0 l0 16 l0 15 l-110 0 l-109 0 l0 -15 l0 -16 l-16 0 l-15 0 l0 -15 l0 -16 l-16 0 l-16 0 l0 -31 l0 -31 l16 0 l16 0 l0 -16 l0 -16 l15 0 l16 0 l0 -15 l0 -16 l62 0 l63 0 l0 -16 l0 -15 l78 0 l78 0 l0 -16 l0 -16 l31 0 l31 0 l0 -15 l0 -16 l16 0 l16 0 l0 -31 l0 -31 l15 0 l16 0 l0 -78 l0 -79 l-16 0 l-15 0 l0 -31 l0 -31 l-16 0 l-16 0 l0 -16 l0 -15 l-31 0 l-31 0 l0 -16 l0 -15 l-156 0 l-156 0 l0 15 l0 16 l-32 0 l-31 0 l0 15 l0 16 l-16 0 l-15 0 l0 16 l0 15 l-16 0 l-16 0 l0 31 l0 32 l-15 0 l-16 0 l0 31 l0 31 l47 0 l47 0 l0 -15 l0 -16 l16 0 l15 0 l0 -31 l0 -32 l32 0 l31 0 l0 -15 l0 -16 l125 0 l125 0 l0 16 l0 15 l15 0 l16 0 l0 16 l0 16 l16 0 l15 0 l0 47 l0 47 l-15 0 l-16 0 l0 15 l0 16 l-16 0 l-15 0 l0 15 l0 16 l-78 0 l-79 0 l0 16 l0 15 l-62 0 l-62 0 l0 16 l0 15 l-32 0 l-31 0 l0 16 l0 16 l-16 0 l-15 0 l0 31 l0 31 l-16 0 l-16 0 l0 63 l0 62 l16 0 l16 0 l0 31 l0 32 l15 0 l16 0 l0 15 l0 16 l31 0 l32 0 l0 16 l0 15 l140 0 Z" /><glyph glyph-name="T" unicode="T" d="M328 706 l297 0 l0 -47 l0 -47 l-125 0 l-125 0 l0 -312 l0 -312 l-47 0 l-47 0 l0 312 l0 312 l-125 0 l-125 0 l0 47 l0 47 l297 0 Z" /><glyph glyph-name="U" unicode="U" d="M141 706 l47 0 l0 -265 l0 -266 l15 0 l16 0 l0 -31 l0 -32 l31 0 l31 0 l0 -15 l0 -16 l94 0 l94 0 l0 16 l0 15 l31 0 l31 0 l0 32 l0 31 l16 0 l15 0 l0 266 l0 265 l47 0 l47 0 l0 -281 l0 -281 l-15 0 l-16 0 l0 -32 l0 -31 l-16 0 l-15 0 l0 -15 l0 -16 l-16 0 l-16 0 l0 -16 l0 -15 l-31 0 l-31 0 l0 -16 l0 -15 l-125 0 l-125 0 l0 15 l0 16 l-31 0 l-31 0 l0 15 l0 16 l-16 0 l-16 0 l0 16 l0 15 l-15 0 l-16 0 l0 31 l0 32 l-16 0 l-15 0 l0 281 l0 281 l47 0 Z" /><glyph glyph-name="V" unicode="V" d="M78 706 l47 0 l0 -15 l0 -16 l16 0 l15 0 l0 -47 l0 -47 l16 0 l16 0 l0 -31 l0 -31 l15 0 l16 0 l0 -47 l0 -47 l15 0 l16 0 l0 -47 l0 -47 l16 0 l15 0 l0 -31 l0 -31 l16 0 l15 0 l0 -47 l0 -47 l16 0 l16 0 l0 -31 l0 -32 l15 0 l16 0 l0 32 l0 31 l16 0 l15 0 l0 47 l0 47 l16 0 l16 0 l0 31 l0 31 l15 0 l16 0 l0 47 l0 47 l15 0 l16 0 l0 47 l0 47 l16 0 l15 0 l0 31 l0 31 l16 0 l15 0 l0 47 l0 47 l16 0 l16 0 l0 16 l0 15 l47 0 l47 0 l0 -31 l0 -31 l-16 0 l-16 0 l0 -47 l0 -47 l-15 0 l-16 0 l0 -31 l0 -31 l-16 0 l-15 0 l0 -47 l0 -47 l-16 0 l-16 0 l0 -47 l0 -47 l-15 0 l-16 0 l0 -31 l0 -31 l-15 0 l-16 0 l0 -47 l0 -47 l-16 0 l-15 0 l0 -47 l0 -47 l-16 0 l-15 0 l0 -31 l0 -31 l-79 0 l-78 0 l0 31 l0 31 l-15 0 l-16 0 l0 47 l0 47 l-16 0 l-15 0 l0 47 l0 47 l-16 0 l-15 0 l0 31 l0 31 l-16 0 l-16 0 l0 47 l0 47 l-15 0 l-16 0 l0 47 l0 47 l-16 0 l-15 0 l0 31 l0 31 l-16 0 l-16 0 l0 47 l0 47 l-15 0 l-16 0 l0 31 l0 31 l47 0 Z" /><glyph glyph-name="W" unicode="W" d="M78 706 l47 0 l0 -47 l0 -47 l16 0 l15 0 l0 -46 l0 -47 l16 0 l16 0 l0 -47 l0 -47 l15 0 l16 0 l0 -47 l0 -47 l15 0 l16 0 l0 -47 l0 -46 l31 0 l31 0 l0 46 l0 47 l16 0 l16 0 l0 47 l0 47 l15 0 l16 0 l0 47 l0 47 l16 0 l15 0 l0 47 l0 46 l16 0 l16 0 l0 47 l0 47 l62 0 l62 0 l0 -47 l0 -47 l16 0 l16 0 l0 -46 l0 -47 l15 0 l16 0 l0 -47 l0 -47 l16 0 l15 0 l0 -47 l0 -47 l16 0 l16 0 l0 -47 l0 -46 l31 0 l31 0 l0 46 l0 47 l16 0 l15 0 l0 47 l0 47 l16 0 l15 0 l0 47 l0 47 l16 0 l16 0 l0 47 l0 46 l15 0 l16 0 l0 47 l0 47 l47 0 l47 0 l0 -62 l0 -63 l-16 0 l-15 0 l0 -47 l0 -46 l-16 0 l-16 0 l0 -47 l0 -47 l-15 0 l-16 0 l0 -47 l0 -47 l-16 0 l-15 0 l0 -47 l0 -47 l-16 0 l-16 0 l0 -47 l0 -47 l-15 0 l-16 0 l0 -62 l0 -62 l-62 0 l-63 0 l0 62 l0 62 l-15 0 l-16 0 l0 47 l0 47 l-16 0 l-15 0 l0 47 l0 47 l-16 0 l-16 0 l0 47 l0 47 l-15 0 l-16 0 l0 47 l0 47 l-31 0 l-31 0 l0 -47 l0 -47 l-16 0 l-15 0 l0 -47 l0 -47 l-16 0 l-16 0 l0 -47 l0 -47 l-15 0 l-16 0 l0 -47 l0 -47 l-16 0 l-15 0 l0 -62 l0 -62 l-63 0 l-62 0 l0 62 l0 62 l-16 0 l-15 0 l0 47 l0 47 l-16 0 l-16 0 l0 47 l0 47 l-15 0 l-16 0 l0 47 l0 47 l-16 0 l-15 0 l0 47 l0 47 l-16 0 l-16 0 l0 46 l0 47 l-15 0 l-16 0 l0 63 l0 62 l47 0 Z" /><glyph glyph-name="X" unicode="X" d="M109 706 l47 0 l0 -15 l0 -16 l16 0 l16 0 l0 -31 l0 -32 l15 0 l16 0 l0 -15 l0 -16 l15 0 l16 0 l0 -15 l0 -16 l16 0 l15 0 l0 -31 l0 -31 l16 0 l15 0 l0 -16 l0 -16 l32 0 l31 0 l0 16 l0 16 l16 0 l15 0 l0 31 l0 31 l16 0 l16 0 l0 16 l0 15 l15 0 l16 0 l0 16 l0 15 l15 0 l16 0 l0 32 l0 31 l16 0 l15 0 l0 16 l0 15 l47 0 l47 0 l0 -31 l0 -31 l-16 0 l-15 0 l0 -32 l0 -31 l-16 0 l-16 0 l0 -15 l0 -16 l-15 0 l-16 0 l0 -16 l0 -15 l-15 0 l-16 0 l0 -31 l0 -32 l-16 0 l-15 0 l0 -15 l0 -16 l-16 0 l-15 0 l0 -16 l0 -15 l-16 0 l-16 0 l0 -32 l0 -31 l16 0 l16 0 l0 -15 l0 -16 l15 0 l16 0 l0 -31 l0 -31 l15 0 l16 0 l0 -16 l0 -16 l16 0 l15 0 l0 -15 l0 -16 l16 0 l15 0 l0 -31 l0 -32 l16 0 l16 0 l0 -15 l0 -16 l15 0 l16 0 l0 -15 l0 -16 l16 0 l15 0 l0 -31 l0 -31 l-47 0 l-47 0 l0 15 l0 16 l-15 0 l-16 0 l0 15 l0 16 l-15 0 l-16 0 l0 16 l0 15 l-16 0 l-15 0 l0 31 l0 32 l-16 0 l-15 0 l0 15 l0 16 l-16 0 l-16 0 l0 16 l0 15 l-15 0 l-16 0 l0 32 l0 31 l-31 0 l-32 0 l0 -31 l0 -32 l-15 0 l-16 0 l0 -15 l0 -16 l-15 0 l-16 0 l0 -16 l0 -15 l-16 0 l-15 0 l0 -32 l0 -31 l-16 0 l-15 0 l0 -15 l0 -16 l-16 0 l-16 0 l0 -16 l0 -15 l-15 0 l-16 0 l0 -16 l0 -15 l-47 0 l-47 0 l0 31 l0 31 l16 0 l15 0 l0 16 l0 15 l16 0 l16 0 l0 16 l0 15 l15 0 l16 0 l0 32 l0 31 l16 0 l15 0 l0 16 l0 15 l16 0 l16 0 l0 16 l0 16 l15 0 l16 0 l0 31 l0 31 l15 0 l16 0 l0 16 l0 15 l16 0 l15 0 l0 31 l0 32 l-15 0 l-16 0 l0 15 l0 16 l-16 0 l-15 0 l0 16 l0 15 l-16 0 l-15 0 l0 32 l0 31 l-16 0 l-16 0 l0 15 l0 16 l-15 0 l-16 0 l0 16 l0 15 l-16 0 l-15 0 l0 31 l0 32 l-16 0 l-16 0 l0 31 l0 31 l47 0 Z" /><glyph glyph-name="Y" unicode="Y" d="M78 706 l47 0 l0 -15 l0 -16 l16 0 l15 0 l0 -16 l0 -15 l16 0 l16 0 l0 -16 l0 -16 l15 0 l16 0 l0 -31 l0 -31 l15 0 l16 0 l0 -16 l0 -15 l16 0 l15 0 l0 -16 l0 -15 l16 0 l15 0 l0 -32 l0 -31 l16 0 l16 0 l0 -16 l0 -15 l15 0 l16 0 l0 15 l0 16 l16 0 l15 0 l0 31 l0 32 l16 0 l16 0 l0 15 l0 16 l15 0 l16 0 l0 15 l0 16 l15 0 l16 0 l0 31 l0 31 l16 0 l15 0 l0 16 l0 16 l16 0 l15 0 l0 15 l0 16 l16 0 l16 0 l0 16 l0 15 l47 0 l47 0 l0 -31 l0 -31 l-16 0 l-16 0 l0 -16 l0 -16 l-15 0 l-16 0 l0 -15 l0 -16 l-16 0 l-15 0 l0 -31 l0 -31 l-16 0 l-16 0 l0 -16 l0 -15 l-15 0 l-16 0 l0 -16 l0 -16 l-15 0 l-16 0 l0 -31 l0 -31 l-16 0 l-15 0 l0 -16 l0 -16 l-16 0 l-15 0 l0 -15 l0 -16 l-16 0 l-16 0 l0 -172 l0 -171 l-47 0 l-47 0 l0 171 l0 172 l-15 0 l-16 0 l0 16 l0 15 l-15 0 l-16 0 l0 16 l0 16 l-16 0 l-15 0 l0 31 l0 31 l-16 0 l-15 0 l0 16 l0 16 l-16 0 l-16 0 l0 15 l0 16 l-15 0 l-16 0 l0 31 l0 31 l-16 0 l-15 0 l0 16 l0 15 l-16 0 l-16 0 l0 16 l0 16 l-15 0 l-16 0 l0 31 l0 31 l47 0 Z" /><glyph glyph-name="Z" unicode="Z" d="M328 706 l266 0 l0 -62 l0 -63 l-16 0 l-16 0 l0 -15 l0 -16 l-15 0 l-16 0 l0 -16 l0 -15 l-15 0 l-16 0 l0 -16 l0 -15 l-16 0 l-15 0 l0 -16 l0 -16 l-16 0 l-15 0 l0 -15 l0 -16 l-16 0 l-16 0 l0 -31 l0 -32 l-15 0 l-16 0 l0 -15 l0 -16 l-16 0 l-15 0 l0 -15 l0 -16 l-16 0 l-16 0 l0 -16 l0 -15 l-15 0 l-16 0 l0 -31 l0 -32 l-15 0 l-16 0 l0 -15 l0 -16 l-16 0 l-15 0 l0 -16 l0 -15 l-16 0 l-15 0 l0 -16 l0 -16 l-16 0 l-16 0 l0 -15 l0 -16 l235 0 l234 0 l0 -47 l0 -46 l-297 0 l-297 0 l0 62 l0 62 l16 0 l15 0 l0 16 l0 16 l16 0 l16 0 l0 15 l0 16 l15 0 l16 0 l0 16 l0 15 l16 0 l15 0 l0 16 l0 16 l16 0 l16 0 l0 31 l0 31 l15 0 l16 0 l0 16 l0 15 l15 0 l16 0 l0 16 l0 15 l16 0 l15 0 l0 16 l0 16 l16 0 l15 0 l0 31 l0 31 l16 0 l16 0 l0 16 l0 16 l15 0 l16 0 l0 15 l0 16 l16 0 l15 0 l0 15 l0 16 l16 0 l16 0 l0 16 l0 15 l15 0 l16 0 l0 16 l0 15 l-203 0 l-204 0 l0 47 l0 47 l266 0 Z" /><glyph glyph-name="bracketleft" unicode="[" d="M156 706 l94 0 l0 -47 l0 -47 l-47 0 l-47 0 l0 -374 l0 -376 l47 0 l47 0 l0 -46 l0 -47 l-94 0 l-94 0 l0 469 l0 468 l94 0 Z" /><glyph glyph-name="backslash" unicode="\" d="M47 706 l47 0 l0 -47 l0 -47 l15 0 l16 0 l0 -62 l0 -62 l16 0 l15 0 l0 -47 l0 -47 l16 0 l16 0 l0 -63 l0 -62 l15 0 l16 0 l0 -47 l0 -47 l15 0 l16 0 l0 -47 l0 -47 l16 0 l15 0 l0 -47 l0 -46 l-47 0 l-46 0 l0 46 l0 47 l-16 0 l-16 0 l0 47 l0 47 l-15 0 l-16 0 l0 47 l0 47 l-16 0 l-15 0 l0 62 l0 63 l-16 0 l-16 0 l0 47 l0 47 l-15 0 l-16 0 l0 62 l0 62 l-15 0 l-16 0 l0 47 l0 47 l47 0 Z" /><glyph glyph-name="bracketright" unicode="]" d="M125 706 l94 0 l0 -468 l0 -469 l-94 0 l-94 0 l0 47 l0 46 l47 0 l47 0 l0 376 l0 374 l-47 0 l-47 0 l0 47 l0 47 l94 0 Z" /><glyph glyph-name="asciicircum" unicode="^" d="M234 706 l78 0 l0 -15 l0 -16 l16 0 l16 0 l0 -16 l0 -15 l15 0 l16 0 l0 -16 l0 -16 l16 0 l15 0 l0 -15 l0 -16 l16 0 l16 0 l0 -15 l0 -16 l-32 0 l-31 0 l0 16 l0 15 l-31 0 l-32 0 l0 16 l0 15 l-31 0 l-31 0 l0 16 l0 16 l-16 0 l-15 0 l0 -16 l0 -16 l-31 0 l-32 0 l0 -15 l0 -16 l-31 0 l-31 0 l0 -15 l0 -16 l-32 0 l-31 0 l0 16 l0 15 l16 0 l15 0 l0 16 l0 15 l16 0 l16 0 l0 16 l0 16 l15 0 l16 0 l0 15 l0 16 l16 0 l15 0 l0 16 l0 15 l78 0 Z" /><glyph glyph-name="underscore" unicode="_" d="M281 -44 l281 0 l0 -31 l0 -31 l-281 0 l-281 0 l0 31 l0 31 l281 0 Z" /><glyph glyph-name="grave" unicode="`" d="M141 706 l78 0 l0 -15 l0 -16 l15 0 l16 0 l0 -16 l0 -15 l16 0 l15 0 l0 -32 l0 -31 l-15 0 l-16 0 l0 16 l0 15 l-31 0 l-31 0 l0 16 l0 16 l-32 0 l-31 0 l0 15 l0 16 l-31 0 l-32 0 l0 16 l0 15 l79 0 Z" /><glyph glyph-name="a" unicode="a" d="M281 488 l125 0 l0 -16 l0 -16 l32 0 l31 0 l0 -31 l0 -31 l15 0 l16 0 l0 -156 l0 -157 l16 0 l15 0 l0 -15 l0 -16 l16 0 l15 0 l0 -31 l0 -31 l-46 0 l-47 0 l0 15 l0 16 l-16 0 l-15 0 l0 15 l0 16 l-16 0 l-16 0 l0 -16 l0 -15 l-31 0 l-31 0 l0 -16 l0 -15 l-110 0 l-109 0 l0 15 l0 16 l-31 0 l-32 0 l0 31 l0 31 l-15 0 l-16 0 l0 47 l0 47 l16 0 l15 0 l0 31 l0 32 l16 0 l16 0 l0 15 l0 16 l31 0 l31 0 l0 15 l0 16 l110 0 l109 0 l0 16 l0 15 l16 0 l15 0 l0 31 l0 32 l-15 0 l-16 0 l0 15 l0 16 l-94 0 l-93 0 l0 -16 l0 -15 l-16 0 l-16 0 l0 -16 l0 -16 l-47 0 l-47 0 l0 16 l0 16 l16 0 l16 0 l0 31 l0 31 l31 0 l31 0 l0 16 l0 16 l125 0 ZM391 269 l-16 0 l0 -16 l0 -15 l-94 0 l-93 0 l0 -16 l0 -16 l-16 0 l-16 0 l0 -15 l0 -16 l-15 0 l-16 0 l0 -47 l0 -47 l16 0 l15 0 l0 -15 l0 -16 l94 0 l94 0 l0 16 l0 15 l15 0 l16 0 l0 16 l0 15 l16 0 l15 0 l0 79 l0 78 l-15 0 Z" /><glyph glyph-name="b" unicode="b" d="M109 706 l47 0 l0 -125 l0 -125 l32 0 l31 0 l0 16 l0 16 l93 0 l94 0 l0 -16 l0 -16 l32 0 l31 0 l0 -15 l0 -16 l15 0 l16 0 l0 -31 l0 -32 l16 0 l15 0 l0 -124 l0 -126 l-15 0 l-16 0 l0 -31 l0 -31 l-16 0 l-15 0 l0 -16 l0 -15 l-31 0 l-32 0 l0 -16 l0 -15 l-94 0 l-93 0 l0 15 l0 16 l-31 0 l-32 0 l0 -16 l0 -15 l-47 0 l-47 0 l0 359 l0 359 l47 0 ZM297 425 l-47 0 l0 -16 l0 -15 l-31 0 l-31 0 l0 -32 l0 -31 l-16 0 l-16 0 l0 -93 l0 -94 l16 0 l16 0 l0 -32 l0 -31 l31 0 l31 0 l0 -15 l0 -16 l47 0 l47 0 l0 16 l0 15 l31 0 l31 0 l0 31 l0 32 l16 0 l16 0 l0 94 l0 93 l-16 0 l-16 0 l0 31 l0 32 l-31 0 l-31 0 l0 15 l0 16 l-47 0 Z" /><glyph glyph-name="c" unicode="c" d="M281 488 l125 0 l0 -16 l0 -16 l32 0 l31 0 l0 -15 l0 -16 l15 0 l16 0 l0 -47 l0 -47 l-47 0 l-47 0 l0 31 l0 32 l-31 0 l-31 0 l0 15 l0 16 l-63 0 l-62 0 l0 -16 l0 -15 l-31 0 l-32 0 l0 -32 l0 -31 l-15 0 l-16 0 l0 -93 l0 -94 l16 0 l15 0 l0 -32 l0 -31 l32 0 l31 0 l0 -15 l0 -16 l62 0 l63 0 l0 16 l0 15 l31 0 l31 0 l0 31 l0 32 l47 0 l47 0 l0 -47 l0 -47 l-16 0 l-15 0 l0 -16 l0 -15 l-31 0 l-32 0 l0 -16 l0 -15 l-125 0 l-125 0 l0 15 l0 16 l-31 0 l-31 0 l0 15 l0 16 l-16 0 l-16 0 l0 31 l0 31 l-15 0 l-16 0 l0 126 l0 124 l16 0 l15 0 l0 32 l0 31 l16 0 l16 0 l0 16 l0 15 l31 0 l31 0 l0 16 l0 16 l125 0 Z" /><glyph glyph-name="d" unicode="d" d="M453 706 l47 0 l0 -359 l0 -359 l-47 0 l-47 0 l0 15 l0 16 l-31 0 l-31 0 l0 -16 l0 -15 l-94 0 l-94 0 l0 15 l0 16 l-31 0 l-31 0 l0 15 l0 16 l-16 0 l-16 0 l0 31 l0 31 l-15 0 l-16 0 l0 126 l0 124 l16 0 l15 0 l0 32 l0 31 l16 0 l16 0 l0 16 l0 15 l31 0 l31 0 l0 16 l0 16 l94 0 l94 0 l0 -16 l0 -16 l31 0 l31 0 l0 125 l0 125 l47 0 ZM266 425 l-47 0 l0 -16 l0 -15 l-31 0 l-32 0 l0 -32 l0 -31 l-15 0 l-16 0 l0 -93 l0 -94 l16 0 l15 0 l0 -32 l0 -31 l32 0 l31 0 l0 -15 l0 -16 l47 0 l46 0 l0 16 l0 15 l32 0 l31 0 l0 31 l0 32 l16 0 l15 0 l0 94 l0 93 l-15 0 l-16 0 l0 31 l0 32 l-31 0 l-32 0 l0 15 l0 16 l-46 0 Z" /><glyph glyph-name="e" unicode="e" d="M266 488 l109 0 l0 -16 l0 -16 l31 0 l32 0 l0 -15 l0 -16 l15 0 l16 0 l0 -31 l0 -32 l15 0 l16 0 l0 -62 l0 -62 l-188 0 l-187 0 l0 -47 l0 -47 l16 0 l15 0 l0 -32 l0 -31 l32 0 l31 0 l0 -15 l0 -16 l47 0 l46 0 l0 16 l0 15 l32 0 l31 0 l0 31 l0 32 l63 0 l62 0 l0 -16 l0 -16 l-16 0 l-15 0 l0 -31 l0 -31 l-16 0 l-15 0 l0 -16 l0 -15 l-32 0 l-31 0 l0 -16 l0 -15 l-109 0 l-110 0 l0 15 l0 16 l-31 0 l-31 0 l0 15 l0 16 l-16 0 l-16 0 l0 31 l0 31 l-15 0 l-16 0 l0 126 l0 124 l16 0 l15 0 l0 32 l0 31 l16 0 l16 0 l0 16 l0 15 l31 0 l31 0 l0 16 l0 16 l110 0 ZM266 425 l-47 0 l0 -16 l0 -15 l-31 0 l-32 0 l0 -32 l0 -31 l-15 0 l-16 0 l0 -15 l0 -16 l141 0 l140 0 l0 16 l0 15 l-15 0 l-16 0 l0 31 l0 32 l-31 0 l-32 0 l0 15 l0 16 l-46 0 Z" /><glyph glyph-name="f" unicode="f" d="M234 706 l47 0 l0 -31 l0 -31 l-31 0 l-31 0 l0 -16 l0 -16 l-16 0 l-15 0 l0 -62 l0 -62 l46 0 l47 0 l0 -32 l0 -31 l-47 0 l-46 0 l0 -219 l0 -218 l-47 0 l-47 0 l0 218 l0 219 l-47 0 l-47 0 l0 31 l0 32 l47 0 l47 0 l0 62 l0 62 l15 0 l16 0 l0 32 l0 31 l31 0 l32 0 l0 16 l0 15 l46 0 Z" /><glyph glyph-name="g" unicode="g" d="M250 488 l94 0 l0 -16 l0 -16 l31 0 l31 0 l0 16 l0 16 l47 0 l47 0 l0 -282 l0 -281 l-16 0 l-15 0 l0 -31 l0 -32 l-16 0 l-15 0 l0 -15 l0 -16 l-16 0 l-16 0 l0 -15 l0 -16 l-31 0 l-31 0 l0 -16 l0 -15 l-78 0 l-78 0 l0 15 l0 16 l-32 0 l-31 0 l0 16 l0 15 l-16 0 l-15 0 l0 16 l0 15 l-16 0 l-16 0 l0 32 l0 31 l47 0 l47 0 l0 -31 l0 -32 l32 0 l31 0 l0 -15 l0 -16 l47 0 l46 0 l0 16 l0 15 l32 0 l31 0 l0 32 l0 31 l16 0 l15 0 l0 47 l0 47 l-31 0 l-31 0 l0 -16 l0 -15 l-94 0 l-94 0 l0 15 l0 16 l-31 0 l-31 0 l0 15 l0 16 l-16 0 l-16 0 l0 31 l0 31 l-15 0 l-16 0 l0 126 l0 124 l16 0 l15 0 l0 32 l0 31 l16 0 l16 0 l0 16 l0 15 l31 0 l31 0 l0 16 l0 16 l94 0 ZM266 425 l-47 0 l0 -16 l0 -15 l-31 0 l-32 0 l0 -32 l0 -31 l-15 0 l-16 0 l0 -93 l0 -94 l16 0 l15 0 l0 -32 l0 -31 l32 0 l31 0 l0 -15 l0 -16 l47 0 l46 0 l0 16 l0 15 l32 0 l31 0 l0 31 l0 32 l16 0 l15 0 l0 94 l0 93 l-15 0 l-16 0 l0 31 l0 32 l-31 0 l-32 0 l0 15 l0 16 l-46 0 Z" /><glyph glyph-name="h" unicode="h" d="M109 706 l47 0 l0 -140 l0 -141 l16 0 l16 0 l0 16 l0 15 l15 0 l16 0 l0 16 l0 16 l93 0 l94 0 l0 -16 l0 -16 l32 0 l31 0 l0 -31 l0 -31 l15 0 l16 0 l0 -203 l0 -203 l-47 0 l-47 0 l0 187 l0 187 l-15 0 l-16 0 l0 16 l0 16 l-16 0 l-15 0 l0 15 l0 16 l-63 0 l-62 0 l0 -16 l0 -15 l-16 0 l-15 0 l0 -16 l0 -16 l-16 0 l-16 0 l0 -187 l0 -187 l-47 0 l-47 0 l0 359 l0 359 l47 0 Z" /><glyph glyph-name="i" unicode="i" d="M109 488 l47 0 l0 -250 l0 -250 l-47 0 l-47 0 l0 250 l0 250 l47 0 ZM109 706 l47 0 l0 -47 l0 -47 l-47 0 l-47 0 l0 47 l0 47 l47 0 Z" /><glyph glyph-name="j" unicode="j" d="M109 488 l47 0 l0 -329 l0 -328 l-15 0 l-16 0 l0 -15 l0 -16 l-16 0 l-15 0 l0 -16 l0 -15 l-47 0 l-47 0 l0 31 l0 31 l16 0 l15 0 l0 16 l0 15 l16 0 l15 0 l0 313 l0 313 l47 0 ZM109 706 l47 0 l0 -47 l0 -47 l-47 0 l-47 0 l0 47 l0 47 l47 0 Z" /><glyph glyph-name="k" unicode="k" d="M109 706 l47 0 l0 -203 l0 -203 l16 0 l16 0 l0 16 l0 15 l15 0 l16 0 l0 16 l0 15 l15 0 l16 0 l0 16 l0 16 l16 0 l15 0 l0 15 l0 16 l16 0 l15 0 l0 16 l0 15 l16 0 l16 0 l0 16 l0 16 l47 0 l47 0 l0 -16 l0 -16 l-16 0 l-16 0 l0 -15 l0 -16 l-15 0 l-16 0 l0 -16 l0 -15 l-16 0 l-15 0 l0 -16 l0 -16 l-16 0 l-16 0 l0 -15 l0 -16 l-15 0 l-16 0 l0 -31 l0 -31 l16 0 l15 0 l0 -16 l0 -15 l16 0 l16 0 l0 -16 l0 -16 l15 0 l16 0 l0 -31 l0 -31 l16 0 l15 0 l0 -16 l0 -16 l16 0 l16 0 l0 -15 l0 -16 l15 0 l16 0 l0 -31 l0 -31 l15 0 l16 0 l0 -16 l0 -15 l-62 0 l-63 0 l0 31 l0 31 l-16 0 l-15 0 l0 16 l0 15 l-16 0 l-16 0 l0 16 l0 15 l-15 0 l-16 0 l0 32 l0 31 l-15 0 l-16 0 l0 16 l0 15 l-16 0 l-15 0 l0 16 l0 16 l-16 0 l-15 0 l0 -16 l0 -16 l-16 0 l-16 0 l0 -109 l0 -109 l-47 0 l-47 0 l0 359 l0 359 l47 0 Z" /><glyph glyph-name="l" unicode="l" d="M109 706 l47 0 l0 -359 l0 -359 l-47 0 l-47 0 l0 359 l0 359 l47 0 Z" /><glyph glyph-name="m" unicode="m" d="M109 488 l47 0 l0 -32 l0 -31 l16 0 l16 0 l0 16 l0 15 l15 0 l16 0 l0 16 l0 16 l78 0 l78 0 l0 -16 l0 -16 l31 0 l32 0 l0 -31 l0 -31 l15 0 l16 0 l0 15 l0 16 l15 0 l16 0 l0 16 l0 15 l16 0 l15 0 l0 16 l0 16 l78 0 l79 0 l0 -16 l0 -16 l31 0 l31 0 l0 -31 l0 -31 l16 0 l15 0 l0 -203 l0 -203 l-47 0 l-46 0 l0 187 l0 187 l-16 0 l-16 0 l0 16 l0 16 l-15 0 l-16 0 l0 15 l0 16 l-47 0 l-47 0 l0 -16 l0 -15 l-15 0 l-16 0 l0 -16 l0 -16 l-16 0 l-15 0 l0 -187 l0 -187 l-47 0 l-47 0 l0 187 l0 187 l-16 0 l-15 0 l0 16 l0 16 l-16 0 l-16 0 l0 15 l0 16 l-46 0 l-47 0 l0 -16 l0 -15 l-16 0 l-15 0 l0 -16 l0 -16 l-16 0 l-16 0 l0 -187 l0 -187 l-47 0 l-47 0 l0 250 l0 250 l47 0 Z" /><glyph glyph-name="n" unicode="n" d="M109 488 l47 0 l0 -32 l0 -31 l16 0 l16 0 l0 16 l0 15 l15 0 l16 0 l0 16 l0 16 l93 0 l94 0 l0 -16 l0 -16 l32 0 l31 0 l0 -31 l0 -31 l15 0 l16 0 l0 -203 l0 -203 l-47 0 l-47 0 l0 187 l0 187 l-15 0 l-16 0 l0 16 l0 16 l-16 0 l-15 0 l0 15 l0 16 l-63 0 l-62 0 l0 -16 l0 -15 l-16 0 l-15 0 l0 -16 l0 -16 l-16 0 l-16 0 l0 -187 l0 -187 l-47 0 l-47 0 l0 250 l0 250 l47 0 Z" /><glyph glyph-name="o" unicode="o" d="M281 488 l125 0 l0 -16 l0 -16 l32 0 l31 0 l0 -15 l0 -16 l15 0 l16 0 l0 -31 l0 -32 l16 0 l15 0 l0 -124 l0 -126 l-15 0 l-16 0 l0 -31 l0 -31 l-16 0 l-15 0 l0 -16 l0 -15 l-31 0 l-32 0 l0 -16 l0 -15 l-125 0 l-125 0 l0 15 l0 16 l-31 0 l-31 0 l0 15 l0 16 l-16 0 l-16 0 l0 31 l0 31 l-15 0 l-16 0 l0 126 l0 124 l16 0 l15 0 l0 32 l0 31 l16 0 l16 0 l0 16 l0 15 l31 0 l31 0 l0 16 l0 16 l125 0 ZM281 425 l-62 0 l0 -16 l0 -15 l-31 0 l-32 0 l0 -32 l0 -31 l-15 0 l-16 0 l0 -93 l0 -94 l16 0 l15 0 l0 -32 l0 -31 l32 0 l31 0 l0 -15 l0 -16 l62 0 l63 0 l0 16 l0 15 l31 0 l31 0 l0 31 l0 32 l16 0 l16 0 l0 94 l0 93 l-16 0 l-16 0 l0 31 l0 32 l-31 0 l-31 0 l0 15 l0 16 l-63 0 Z" /><glyph glyph-name="p" unicode="p" d="M109 488 l47 0 l0 -16 l0 -16 l32 0 l31 0 l0 16 l0 16 l93 0 l94 0 l0 -16 l0 -16 l32 0 l31 0 l0 -15 l0 -16 l15 0 l16 0 l0 -31 l0 -32 l16 0 l15 0 l0 -124 l0 -126 l-15 0 l-16 0 l0 -31 l0 -31 l-16 0 l-15 0 l0 -16 l0 -15 l-31 0 l-32 0 l0 -16 l0 -15 l-94 0 l-93 0 l0 15 l0 16 l-31 0 l-32 0 l0 -110 l0 -109 l-47 0 l-47 0 l0 344 l0 344 l47 0 ZM297 425 l-47 0 l0 -16 l0 -15 l-31 0 l-31 0 l0 -32 l0 -31 l-16 0 l-16 0 l0 -93 l0 -94 l16 0 l16 0 l0 -32 l0 -31 l31 0 l31 0 l0 -15 l0 -16 l47 0 l47 0 l0 16 l0 15 l31 0 l31 0 l0 31 l0 32 l16 0 l16 0 l0 94 l0 93 l-16 0 l-16 0 l0 31 l0 32 l-31 0 l-31 0 l0 15 l0 16 l-47 0 Z" /><glyph glyph-name="q" unicode="q" d="M250 488 l94 0 l0 -16 l0 -16 l31 0 l31 0 l0 16 l0 16 l47 0 l47 0 l0 -344 l0 -344 l-47 0 l-47 0 l0 109 l0 110 l-31 0 l-31 0 l0 -16 l0 -15 l-94 0 l-94 0 l0 15 l0 16 l-31 0 l-31 0 l0 15 l0 16 l-16 0 l-16 0 l0 31 l0 31 l-15 0 l-16 0 l0 126 l0 124 l16 0 l15 0 l0 32 l0 31 l16 0 l16 0 l0 16 l0 15 l31 0 l31 0 l0 16 l0 16 l94 0 ZM266 425 l-47 0 l0 -16 l0 -15 l-31 0 l-32 0 l0 -32 l0 -31 l-15 0 l-16 0 l0 -93 l0 -94 l16 0 l15 0 l0 -32 l0 -31 l32 0 l31 0 l0 -15 l0 -16 l47 0 l46 0 l0 16 l0 15 l32 0 l31 0 l0 31 l0 32 l16 0 l15 0 l0 94 l0 93 l-15 0 l-16 0 l0 31 l0 32 l-31 0 l-32 0 l0 15 l0 16 l-46 0 Z" /><glyph glyph-name="r" unicode="r" d="M109 488 l47 0 l0 -32 l0 -31 l16 0 l16 0 l0 16 l0 15 l15 0 l16 0 l0 16 l0 16 l62 0 l63 0 l0 -32 l0 -31 l-63 0 l-62 0 l0 -16 l0 -15 l-16 0 l-15 0 l0 -16 l0 -16 l-16 0 l-16 0 l0 -187 l0 -187 l-47 0 l-47 0 l0 250 l0 250 l47 0 Z" /><glyph glyph-name="s" unicode="s" d="M234 488 l110 0 l0 -16 l0 -16 l31 0 l31 0 l0 -31 l0 -31 l16 0 l16 0 l0 -16 l0 -16 l-47 0 l-47 0 l0 16 l0 16 l-16 0 l-16 0 l0 15 l0 16 l-78 0 l-78 0 l0 -16 l0 -15 l-15 0 l-16 0 l0 -47 l0 -47 l16 0 l15 0 l0 -16 l0 -15 l110 0 l109 0 l0 -16 l0 -15 l31 0 l32 0 l0 -32 l0 -31 l15 0 l16 0 l0 -47 l0 -47 l-16 0 l-15 0 l0 -31 l0 -31 l-32 0 l-31 0 l0 -16 l0 -15 l-125 0 l-125 0 l0 15 l0 16 l-31 0 l-32 0 l0 31 l0 31 l-15 0 l-16 0 l0 31 l0 32 l47 0 l47 0 l0 -32 l0 -31 l16 0 l15 0 l0 -15 l0 -16 l94 0 l94 0 l0 16 l0 15 l15 0 l16 0 l0 47 l0 47 l-16 0 l-15 0 l0 16 l0 15 l-110 0 l-109 0 l0 16 l0 16 l-31 0 l-32 0 l0 31 l0 31 l-15 0 l-16 0 l0 47 l0 47 l16 0 l15 0 l0 31 l0 31 l32 0 l31 0 l0 16 l0 16 l109 0 Z" /><glyph glyph-name="t" unicode="t" d="M141 675 l47 0 l0 -94 l0 -93 l46 0 l47 0 l0 -32 l0 -31 l-47 0 l-46 0 l0 -172 l0 -172 l15 0 l16 0 l0 -15 l0 -16 l31 0 l31 0 l0 -31 l0 -31 l-47 0 l-46 0 l0 15 l0 16 l-32 0 l-31 0 l0 31 l0 31 l-16 0 l-15 0 l0 172 l0 172 l-47 0 l-47 0 l0 31 l0 32 l47 0 l47 0 l0 93 l0 94 l47 0 Z" /><glyph glyph-name="u" unicode="u" d="M109 488 l47 0 l0 -188 l0 -188 l16 0 l16 0 l0 -15 l0 -16 l15 0 l16 0 l0 -15 l0 -16 l62 0 l63 0 l0 16 l0 15 l15 0 l16 0 l0 16 l0 15 l16 0 l15 0 l0 188 l0 188 l47 0 l47 0 l0 -250 l0 -250 l-47 0 l-47 0 l0 31 l0 31 l-15 0 l-16 0 l0 -16 l0 -15 l-16 0 l-15 0 l0 -16 l0 -15 l-94 0 l-94 0 l0 15 l0 16 l-31 0 l-31 0 l0 31 l0 31 l-16 0 l-16 0 l0 203 l0 204 l47 0 Z" /><glyph glyph-name="v" unicode="v" d="M47 488 l47 0 l0 -47 l0 -47 l15 0 l16 0 l0 -32 l0 -31 l16 0 l15 0 l0 -31 l0 -31 l16 0 l16 0 l0 -31 l0 -32 l15 0 l16 0 l0 -31 l0 -31 l15 0 l16 0 l0 31 l0 31 l16 0 l15 0 l0 32 l0 31 l16 0 l15 0 l0 31 l0 31 l16 0 l16 0 l0 31 l0 32 l15 0 l16 0 l0 47 l0 47 l47 0 l47 0 l0 -47 l0 -47 l-16 0 l-15 0 l0 -32 l0 -31 l-16 0 l-16 0 l0 -31 l0 -31 l-15 0 l-16 0 l0 -31 l0 -32 l-16 0 l-15 0 l0 -47 l0 -47 l-16 0 l-16 0 l0 -31 l0 -31 l-15 0 l-16 0 l0 -31 l0 -31 l-47 0 l-46 0 l0 31 l0 31 l-16 0 l-16 0 l0 31 l0 31 l-15 0 l-16 0 l0 47 l0 47 l-16 0 l-15 0 l0 32 l0 31 l-16 0 l-16 0 l0 31 l0 31 l-15 0 l-16 0 l0 31 l0 32 l-15 0 l-16 0 l0 47 l0 47 l47 0 Z" /><glyph glyph-name="w" unicode="w" d="M47 488 l47 0 l0 -47 l0 -47 l15 0 l16 0 l0 -32 l0 -31 l16 0 l15 0 l0 -47 l0 -46 l16 0 l16 0 l0 -47 l0 -47 l15 0 l16 0 l0 47 l0 47 l15 0 l16 0 l0 46 l0 47 l16 0 l15 0 l0 31 l0 32 l16 0 l15 0 l0 47 l0 47 l47 0 l47 0 l0 -47 l0 -47 l16 0 l16 0 l0 -32 l0 -31 l15 0 l16 0 l0 -47 l0 -46 l15 0 l16 0 l0 -47 l0 -47 l16 0 l15 0 l0 47 l0 47 l16 0 l15 0 l0 46 l0 47 l16 0 l16 0 l0 31 l0 32 l15 0 l16 0 l0 47 l0 47 l47 0 l47 0 l0 -47 l0 -47 l-16 0 l-15 0 l0 -32 l0 -31 l-16 0 l-16 0 l0 -47 l0 -46 l-15 0 l-16 0 l0 -47 l0 -47 l-16 0 l-15 0 l0 -32 l0 -31 l-16 0 l-16 0 l0 -47 l0 -46 l-46 0 l-47 0 l0 46 l0 47 l-16 0 l-15 0 l0 31 l0 32 l-16 0 l-16 0 l0 47 l0 47 l-15 0 l-16 0 l0 46 l0 47 l-16 0 l-15 0 l0 -47 l0 -46 l-16 0 l-16 0 l0 -47 l0 -47 l-15 0 l-16 0 l0 -32 l0 -31 l-15 0 l-16 0 l0 -47 l0 -46 l-47 0 l-47 0 l0 46 l0 47 l-15 0 l-16 0 l0 31 l0 32 l-16 0 l-15 0 l0 47 l0 47 l-16 0 l-16 0 l0 46 l0 47 l-15 0 l-16 0 l0 31 l0 32 l-15 0 l-16 0 l0 47 l0 47 l47 0 Z" /><glyph glyph-name="x" unicode="x" d="M47 488 l47 0 l0 -16 l0 -16 l15 0 l16 0 l0 -15 l0 -16 l16 0 l15 0 l0 -16 l0 -15 l16 0 l16 0 l0 -32 l0 -31 l15 0 l16 0 l0 -15 l0 -16 l15 0 l16 0 l0 16 l0 15 l16 0 l15 0 l0 31 l0 32 l16 0 l15 0 l0 15 l0 16 l16 0 l16 0 l0 16 l0 15 l15 0 l16 0 l0 16 l0 16 l47 0 l47 0 l0 -32 l0 -31 l-16 0 l-15 0 l0 -16 l0 -15 l-16 0 l-16 0 l0 -16 l0 -16 l-15 0 l-16 0 l0 -31 l0 -31 l-16 0 l-15 0 l0 -16 l0 -15 l-16 0 l-16 0 l0 -31 l0 -32 l16 0 l16 0 l0 -15 l0 -16 l15 0 l16 0 l0 -31 l0 -32 l16 0 l15 0 l0 -15 l0 -16 l16 0 l16 0 l0 -15 l0 -16 l15 0 l16 0 l0 -31 l0 -31 l-47 0 l-47 0 l0 15 l0 16 l-16 0 l-15 0 l0 15 l0 16 l-16 0 l-16 0 l0 16 l0 15 l-15 0 l-16 0 l0 31 l0 32 l-15 0 l-16 0 l0 15 l0 16 l-16 0 l-15 0 l0 -16 l0 -15 l-16 0 l-15 0 l0 -32 l0 -31 l-16 0 l-16 0 l0 -15 l0 -16 l-15 0 l-16 0 l0 -16 l0 -15 l-16 0 l-15 0 l0 -16 l0 -15 l-47 0 l-47 0 l0 31 l0 31 l16 0 l15 0 l0 16 l0 15 l16 0 l15 0 l0 16 l0 15 l16 0 l16 0 l0 32 l0 31 l15 0 l16 0 l0 16 l0 15 l16 0 l15 0 l0 32 l0 31 l-15 0 l-16 0 l0 15 l0 16 l-16 0 l-15 0 l0 31 l0 31 l-16 0 l-16 0 l0 16 l0 16 l-15 0 l-16 0 l0 15 l0 16 l-15 0 l-16 0 l0 31 l0 32 l47 0 Z" /><glyph glyph-name="y" unicode="y" d="M47 488 l47 0 l0 -47 l0 -47 l15 0 l16 0 l0 -32 l0 -31 l16 0 l15 0 l0 -31 l0 -31 l16 0 l16 0 l0 -31 l0 -32 l15 0 l16 0 l0 -31 l0 -31 l15 0 l16 0 l0 31 l0 31 l16 0 l15 0 l0 32 l0 31 l16 0 l15 0 l0 31 l0 31 l16 0 l16 0 l0 31 l0 32 l15 0 l16 0 l0 47 l0 47 l47 0 l47 0 l0 -47 l0 -47 l-16 0 l-15 0 l0 -32 l0 -31 l-16 0 l-16 0 l0 -31 l0 -31 l-15 0 l-16 0 l0 -31 l0 -32 l-16 0 l-15 0 l0 -31 l0 -31 l-16 0 l-16 0 l0 -32 l0 -31 l-15 0 l-16 0 l0 -31 l0 -31 l-15 0 l-16 0 l0 -31 l0 -32 l-16 0 l-15 0 l0 -31 l0 -31 l-16 0 l-15 0 l0 -32 l0 -31 l-16 0 l-16 0 l0 -15 l0 -16 l-31 0 l-31 0 l0 -16 l0 -15 l-47 0 l-47 0 l0 31 l0 31 l31 0 l31 0 l0 16 l0 15 l16 0 l16 0 l0 16 l0 16 l15 0 l16 0 l0 31 l0 31 l16 0 l15 0 l0 32 l0 31 l16 0 l16 0 l0 31 l0 31 l-16 0 l-16 0 l0 31 l0 32 l-15 0 l-16 0 l0 31 l0 31 l-16 0 l-15 0 l0 32 l0 31 l-16 0 l-16 0 l0 31 l0 31 l-15 0 l-16 0 l0 31 l0 32 l-15 0 l-16 0 l0 47 l0 47 l47 0 Z" /><glyph glyph-name="z" unicode="z" d="M234 488 l204 0 l0 -63 l0 -63 l-16 0 l-16 0 l0 -15 l0 -16 l-15 0 l-16 0 l0 -15 l0 -16 l-16 0 l-15 0 l0 -16 l0 -15 l-16 0 l-16 0 l0 -16 l0 -15 l-15 0 l-16 0 l0 -32 l0 -31 l-15 0 l-16 0 l0 -16 l0 -15 l-16 0 l-15 0 l0 -16 l0 -16 l-16 0 l-15 0 l0 -15 l0 -16 l140 0 l141 0 l0 -47 l0 -46 l-219 0 l-219 0 l0 46 l0 47 l16 0 l15 0 l0 16 l0 15 l16 0 l16 0 l0 16 l0 16 l15 0 l16 0 l0 15 l0 16 l16 0 l15 0 l0 16 l0 15 l16 0 l16 0 l0 32 l0 31 l15 0 l16 0 l0 15 l0 16 l15 0 l16 0 l0 16 l0 15 l16 0 l15 0 l0 16 l0 15 l16 0 l15 0 l0 16 l0 16 l-140 0 l-141 0 l0 47 l0 47 l203 0 Z" /><glyph glyph-name="braceleft" unicode="{" d="M281 738 l63 0 l0 -32 l0 -31 l-32 0 l-31 0 l0 -16 l0 -15 l-15 0 l-16 0 l0 -16 l0 -16 l-16 0 l-15 0 l0 -78 l0 -78 l-16 0 l-15 0 l0 -31 l0 -31 l-16 0 l-16 0 l0 -16 l0 -16 l-15 0 l-16 0 l0 -15 l0 -16 l16 0 l15 0 l0 -15 l0 -16 l16 0 l16 0 l0 -31 l0 -31 l15 0 l16 0 l0 -79 l0 -78 l15 0 l16 0 l0 -15 l0 -16 l16 0 l15 0 l0 -16 l0 -15 l31 0 l32 0 l0 -31 l0 -32 l-63 0 l-62 0 l0 16 l0 16 l-31 0 l-32 0 l0 31 l0 31 l-15 0 l-16 0 l0 109 l0 110 l-16 0 l-15 0 l0 15 l0 16 l-16 0 l-16 0 l0 16 l0 15 l-15 0 l-16 0 l0 16 l0 15 l16 0 l15 0 l0 16 l0 16 l16 0 l16 0 l0 15 l0 16 l15 0 l16 0 l0 109 l0 110 l16 0 l15 0 l0 31 l0 31 l32 0 l31 0 l0 16 l0 16 l62 0 Z" /><glyph glyph-name="bar" unicode="|" d="M109 706 l47 0 l0 -359 l0 -359 l-47 0 l-47 0 l0 359 l0 359 l47 0 Z" /><glyph glyph-name="braceright" unicode="}" d="M94 738 l62 0 l0 -16 l0 -16 l32 0 l31 0 l0 -31 l0 -31 l15 0 l16 0 l0 -110 l0 -109 l16 0 l15 0 l0 -16 l0 -15 l16 0 l15 0 l0 -16 l0 -16 l16 0 l16 0 l0 -15 l0 -16 l-16 0 l-16 0 l0 -15 l0 -16 l-15 0 l-16 0 l0 -16 l0 -15 l-15 0 l-16 0 l0 -110 l0 -109 l-16 0 l-15 0 l0 -31 l0 -31 l-31 0 l-32 0 l0 -16 l0 -16 l-62 0 l-63 0 l0 32 l0 31 l31 0 l32 0 l0 15 l0 16 l15 0 l16 0 l0 16 l0 15 l16 0 l15 0 l0 78 l0 79 l16 0 l16 0 l0 31 l0 31 l15 0 l16 0 l0 31 l0 31 l-16 0 l-15 0 l0 32 l0 31 l-16 0 l-16 0 l0 94 l0 93 l-15 0 l-16 0 l0 16 l0 16 l-16 0 l-15 0 l0 15 l0 16 l-32 0 l-31 0 l0 31 l0 32 l63 0 Z" /><glyph glyph-name="asciitilde" unicode="~" d="M203 706 l78 0 l0 -15 l0 -16 l16 0 l15 0 l0 -16 l0 -15 l32 0 l31 0 l0 -16 l0 -16 l31 0 l32 0 l0 16 l0 16 l15 0 l16 0 l0 31 l0 31 l47 0 l46 0 l0 -47 l0 -47 l-15 0 l-16 0 l0 -15 l0 -16 l-15 0 l-16 0 l0 -15 l0 -16 l-78 0 l-78 0 l0 16 l0 15 l-16 0 l-16 0 l0 16 l0 15 l-31 0 l-31 0 l0 16 l0 16 l-31 0 l-31 0 l0 -16 l0 -16 l-16 0 l-16 0 l0 -31 l0 -31 l-47 0 l-47 0 l0 47 l0 47 l16 0 l16 0 l0 15 l0 16 l15 0 l16 0 l0 16 l0 15 l78 0 Z" /><glyph glyph-name="uni007F" unicode="" d="M172 706 l78 0 l0 -359 l0 -359 l-78 0 l-78 0 l0 359 l0 359 l78 0 Z" /><glyph glyph-name="uni00A0" unicode=" " d="" /><glyph glyph-name="exclamdown" unicode="¡" d="" /><glyph glyph-name="cent" unicode="¢" d="" /><glyph glyph-name="sterling" unicode="£" d="" /><glyph glyph-name="currency" unicode="¤" d="" /><glyph glyph-name="yen" unicode="¥" d="" /><glyph glyph-name="brokenbar" unicode="¦" d="" /><glyph glyph-name="section" unicode="§" d="" /><glyph glyph-name="dieresis" unicode="¨" d="" /><glyph glyph-name="copyright" unicode="©" d="" /><glyph glyph-name="ordfeminine" unicode="ª" d="" /><glyph glyph-name="guillemotleft" unicode="«" d="" /><glyph glyph-name="logicalnot" unicode="¬" d="" /><glyph glyph-name="uni00AD" unicode="­" d="" /><glyph glyph-name="registered" unicode="®" d="" /><glyph glyph-name="macron" unicode="¯" d="" /><glyph glyph-name="degree" unicode="°" d="" /><glyph glyph-name="plusminus" unicode="±" d="" /><glyph glyph-name="uni00B2" unicode="²" d="" /><glyph glyph-name="uni00B3" unicode="³" d="" /><glyph glyph-name="acute" unicode="´" d="" /><glyph glyph-name="mu" unicode="µ" d="" /><glyph glyph-name="paragraph" unicode="¶" d="" /><glyph glyph-name="periodcentered" unicode="·" d="" /><glyph glyph-name="cedilla" unicode="¸" d="" /><glyph glyph-name="uni00B9" unicode="¹" d="" /><glyph glyph-name="ordmasculine" unicode="º" d="" /><glyph glyph-name="guillemotright" unicode="»" d="" /><glyph glyph-name="onequarter" unicode="¼" d="" /><glyph glyph-name="onehalf" unicode="½" d="" /><glyph glyph-name="threequarters" unicode="¾" d="" /><glyph glyph-name="questiondown" unicode="¿" d="" /><glyph glyph-name="Agrave" unicode="À" d="" /><glyph glyph-name="Aacute" unicode="Á" d="" /><glyph glyph-name="Acircumflex" unicode="Â" d="" /><glyph glyph-name="Atilde" unicode="Ã" d="" /><glyph glyph-name="Adieresis" unicode="Ä" d="" /><glyph glyph-name="Aring" unicode="Å" d="" /><glyph glyph-name="AE" unicode="Æ" d="" /><glyph glyph-name="Ccedilla" unicode="Ç" d="" /><glyph glyph-name="Egrave" unicode="È" d="" /><glyph glyph-name="Eacute" unicode="É" d="" /><glyph glyph-name="Ecircumflex" unicode="Ê" d="" /><glyph glyph-name="Edieresis" unicode="Ë" d="" /><glyph glyph-name="Igrave" unicode="Ì" d="" /><glyph glyph-name="Iacute" unicode="Í" d="" /><glyph glyph-name="Icircumflex" unicode="Î" d="" /><glyph glyph-name="Idieresis" unicode="Ï" d="" /><glyph glyph-name="Eth" unicode="Ð" d="" /><glyph glyph-name="Ntilde" unicode="Ñ" d="" /><glyph glyph-name="Ograve" unicode="Ò" d="" /><glyph glyph-name="Oacute" unicode="Ó" d="" /><glyph glyph-name="Ocircumflex" unicode="Ô" d="" /><glyph glyph-name="Otilde" unicode="Õ" d="" /><glyph glyph-name="Odieresis" unicode="Ö" d="" /><glyph glyph-name="multiply" unicode="×" d="" /><glyph glyph-name="Oslash" unicode="Ø" d="" /><glyph glyph-name="Ugrave" unicode="Ù" d="" /><glyph glyph-name="Uacute" unicode="Ú" d="" /><glyph glyph-name="Ucircumflex" unicode="Û" d="" /><glyph glyph-name="Udieresis" unicode="Ü" d="" /><glyph glyph-name="Yacute" unicode="Ý" d="" /><glyph glyph-name="Thorn" unicode="Þ" d="" /><glyph glyph-name="germandbls" unicode="ß" d="" /><glyph glyph-name="agrave" unicode="à" d="" /><glyph glyph-name="aacute" unicode="á" d="" /><glyph glyph-name="acircumflex" unicode="â" d="" /><glyph glyph-name="atilde" unicode="ã" d="" /><glyph glyph-name="adieresis" unicode="ä" d="" /><glyph glyph-name="aring" unicode="å" d="" /><glyph glyph-name="ae" unicode="æ" d="" /><glyph glyph-name="ccedilla" unicode="ç" d="" /><glyph glyph-name="egrave" unicode="è" d="" /><glyph glyph-name="eacute" unicode="é" d="" /><glyph glyph-name="ecircumflex" unicode="ê" d="" /><glyph glyph-name="edieresis" unicode="ë" d="" /><glyph glyph-name="igrave" unicode="ì" d="" /><glyph glyph-name="iacute" unicode="í" d="" /><glyph glyph-name="icircumflex" unicode="î" d="" /><glyph glyph-name="idieresis" unicode="ï" d="" /><glyph glyph-name="eth" unicode="ð" d="" /><glyph glyph-name="ntilde" unicode="ñ" d="" /><glyph glyph-name="ograve" unicode="ò" d="" /><glyph glyph-name="oacute" unicode="ó" d="" /><glyph glyph-name="ocircumflex" unicode="ô" d="" /><glyph glyph-name="otilde" unicode="õ" d="" /><glyph glyph-name="odieresis" unicode="ö" d="" /><glyph glyph-name="divide" unicode="÷" d="" /><glyph glyph-name="oslash" unicode="ø" d="" /><glyph glyph-name="ugrave" unicode="ù" d="" /><glyph glyph-name="uacute" unicode="ú" d="" /><glyph glyph-name="ucircumflex" unicode="û" d="" /><glyph glyph-name="udieresis" unicode="ü" d="" /><glyph glyph-name="yacute" unicode="ý" d="" /><glyph glyph-name="thorn" unicode="þ" d="" /><glyph glyph-name="ydieresis" unicode="ÿ" d="" /><glyph glyph-name="Euro" unicode="&#x20ac;" d="" /><glyph glyph-name="quotesinglbase" unicode="&#x201a;" d="" /><glyph glyph-name="florin" unicode="&#x192;" d="" /><glyph glyph-name="quotedblbase" unicode="&#x201e;" d="" /><glyph glyph-name="ellipsis" unicode="&#x2026;" d="" /><glyph glyph-name="dagger" unicode="&#x2020;" d="" /><glyph glyph-name="daggerdbl" unicode="&#x2021;" d="" /><glyph glyph-name="circumflex" unicode="&#x2c6;" d="" /><glyph glyph-name="perthousand" unicode="&#x2030;" d="" /><glyph glyph-name="Scaron" unicode="&#x160;" d="" /><glyph glyph-name="guilsinglleft" unicode="&#x2039;" d="" /><glyph glyph-name="OE" unicode="&#x152;" d="" /><glyph glyph-name="Zcaron" unicode="&#x17d;" d="" /><glyph glyph-name="quoteleft" unicode="&#x2018;" d="" /><glyph glyph-name="quoteright" unicode="&#x2019;" d="" /><glyph glyph-name="quotedblleft" unicode="&#x201c;" d="" /><glyph glyph-name="quotedblright" unicode="&#x201d;" d="" /><glyph glyph-name="endash" unicode="&#x2013;" d="" /><glyph glyph-name="emdash" unicode="&#x2014;" d="" /><glyph glyph-name="tilde" unicode="&#x2dc;" d="" /><glyph glyph-name="trademark" unicode="&#x2122;" d="" /><glyph glyph-name="scaron" unicode="&#x161;" d="" /><glyph glyph-name="guilsinglright" unicode="&#x203a;" d="" /><glyph glyph-name="oe" unicode="&#x153;" d="" /><glyph glyph-name="zcaron" unicode="&#x17e;" d="" /><glyph glyph-name="Ydieresis" unicode="&#x178;" d="" /></font>
</defs>
</svg>
